Tabula Rasa HDTV 720p AC3 5.1 | Gamesmaster UK April 2012 | El Maestro Ninja

Скачать через торрент музыку Quake 3 Arena: Noise бесплатно без регистрации torrent

Статистика раздачи
Размер:  318 MB   |    Зарегистрирован:  6 лет 5 месяцев   |    .torrent скачан:  41 раз   |   
Раздают:  1  
   
загрузка...
 
Автор Сообщение

Galfimbul

avatar Galfimbul


Quake 3 Arena: Noise

Жанр: Score / Rock, Electronic
Год выпуска диска: 1999
Композитор: Sonic Mayhem
Производитель диска: Sonic Mayhem / id Software
Аудио кодек: FLAC
Тип рипа: image+.cue
Битрейт аудио: lossless
Продолжительность: 0:46:49
Источник: оригинальный диск

Трэклист:
1. Swallowed (4:19)
2. The Phat Zero K Measure (5:20)
3. Violator (5:16)
4. Collapse (2:13)
5. Noise Purge (2:26)
6. Digital Distress (3:15)
7. Bass Attack (3:35)
8. Tribulation (4:16)
9. Fuck U Up! (3:38)
10. Rocktronica (4:12)
11. Fuel My Game (4:17)
12. Audio Adrenaline (4:01)
 
Exact Audio Copy V0.99 prebeta 4 from 23. January 2008

Отчёт EAC об извлечении, выполненном 31. марта 2010, 18:21

Sonic Mayhem / Quake 3 Arena: Noise

Дисковод: HL-DT-STDVDRAM GSA-H10N Adapter: 1 ID: 0

Режим чтения : ДостоверностьИспользование точного потока : ДаОтключение кэша аудио : ДаИспользование указателей C2 : Нет

Коррекция смещения при чтении : 667Способность читать области Lead-in и Lead-out : НетЗаполнение пропущенных сэмплов тишиной : ДаУдаление блоков с тишиной в начале и конце : НетПри вычислениях CRC использовались нулевые сэмплы : ДаИнтерфейс : Установленный внешний ASPI-интерфейс

Выходной формат : Пользовательский кодировщикВыбранный битрейт : 1024 kBit/sКачество : ВысокийДобавление ID3-тэга : НетУтилита сжатия : C:\Program Files\FLAC\flac.exeДополнительные параметры : -8 -V %s

TOC извлечённого CD

Трек | Старт | Длительность | Начальный сектор | Конечный сектор --------------------------------------------------------------------- 1 | 0:00.00 | 4:19.15 | 0 | 19439 2 | 4:19.15 | 5:20.34 | 19440 | 43473 3 | 9:39.49 | 5:16.05 | 43474 | 67178 4 | 14:55.54 | 2:13.10 | 67179 | 77163 5 | 17:08.64 | 2:25.61 | 77164 | 88099 6 | 19:34.50 | 3:15.35 | 88100 | 102759 7 | 22:50.10 | 3:35.16 | 102760 | 118900 8 | 26:25.26 | 4:15.73 | 118901 | 138098 9 | 30:41.24 | 3:37.73 | 138099 | 154446 10 | 34:19.22 | 4:12.11 | 154447 | 173357 11 | 38:31.33 | 4:16.72 | 173358 | 192629 12 | 42:48.30 | 4:00.58 | 192630 | 210687

Характеристики диапазона извлечения и сообщения об ошибках

Выбранный диапазон

Имя файла C:\Всякое\Tracks\Lossless\Sonic Mayhem - Quake 3 Arena Noise (Lossless)\Sonic Mayhem - Quake 3 Arena Noise.wav

Пиковый уровень 100.0 % Качество диапазона 100.0 % CRC теста AD6BA498 CRC копии AD6BA498 Копирование... OK

Ошибок не произошло

AccurateRip: сводка

Трек 1 точность не определена (достоверность 4) [EEC7E644], AccurateRip вернул [E6F764A4]Трек 2 точность не определена (достоверность 4) [3B13C29A], AccurateRip вернул [98C217D7]Трек 3 точность не определена (достоверность 4) [DEDAE638], AccurateRip вернул [383D6A0F]Трек 4 точность не определена (достоверность 4) [34BF69C3], AccurateRip вернул [03EFD02C]Трек 5 точность не определена (достоверность 4) [F23CE992], AccurateRip вернул [1946D543]Трек 6 точность не определена (достоверность 4) [4819BAE9], AccurateRip вернул [839F5E5B]Трек 7 точность не определена (достоверность 4) [DF37DB6A], AccurateRip вернул [92B02D2B]Трек 8 точность не определена (достоверность 4) [A4B53D36], AccurateRip вернул [BF23483D]Трек 9 точность не определена (достоверность 4) [D7640A70], AccurateRip вернул [2FC943FF]Трек 10 точность не определена (достоверность 4) [E7C3664B], AccurateRip вернул [1CEDB712]Трек 11 точность не определена (достоверность 4) [DB6D3FC1], AccurateRip вернул [B2EB52BF]Трек 12 точность не определена (достоверность 4) [09C481AB], AccurateRip вернул [3369446A]

Ни один трек не прошёл проверки на точностьВ вашей базе может быть иной вариант штамповки диска

Конец отчёта
 
REM GENRE RockREM DATE 1999REM DISCID 960AF90CREM COMMENT "ExactAudioCopy v0.99pb4"PERFORMER "Sonic Mayhem"TITLE "Quake 3 Arena: Noise"FILE "Sonic Mayhem - Quake 3 Arena Noise.flac" WAVE TRACK 01 AUDIO TITLE "Swallowed" PERFORMER "Sonic Mayhem" INDEX 01 00:00:00 TRACK 02 AUDIO TITLE "The Phat Zero K Measure" PERFORMER "Sonic Mayhem" INDEX 01 04:19:15 TRACK 03 AUDIO TITLE "Violator" PERFORMER "Sonic Mayhem" INDEX 01 09:39:49 TRACK 04 AUDIO TITLE "Collapse" PERFORMER "Sonic Mayhem" INDEX 01 14:55:54 TRACK 05 AUDIO TITLE "Noise Purge" PERFORMER "Sonic Mayhem" INDEX 01 17:08:64 TRACK 06 AUDIO TITLE "Digital Distress" PERFORMER "Sonic Mayhem" INDEX 01 19:34:50 TRACK 07 AUDIO TITLE "Bass Attack" PERFORMER "Sonic Mayhem" INDEX 01 22:50:10 TRACK 08 AUDIO TITLE "Tribulation" PERFORMER "Sonic Mayhem" INDEX 01 26:25:26 TRACK 09 AUDIO TITLE "Fuck U Up!" PERFORMER "Sonic Mayhem" INDEX 01 30:41:24 TRACK 10 AUDIO TITLE "Rocktronica" PERFORMER "Sonic Mayhem" INDEX 01 34:19:22 TRACK 11 AUDIO TITLE "Fuel My Game" PERFORMER "Sonic Mayhem" INDEX 01 38:31:33 TRACK 12 AUDIO TITLE "Audio Adrenaline" PERFORMER "Sonic Mayhem" INDEX 01 42:48:30
В самой игре музыки почти нет - полуминутные техносэмплы не привлекают внимания (оно и ясно - ничто не должно сбивать концентрацию игрока), поэтому OST скорее не ingame, а inspired by музыка. Свирепая электроника с механической окраской как раз подстать игре. Вспоминаются Powerman 5k, Rob Zombie, Prodigy, Nine inch Nails и другие industrial-фрики. Noise берет от каждого по кусочку, а запилы электрогитар добавляют резкости звучанию, делая его еще брутальней. Но этого Sonic Mayhem показалось мало: некоторые темы украшены репликами игрового комментатора. Открывающая альбом Swallowed встречает слушателя драйвовым ритмом, пропущенным через кучу фильтров вокалом и суровым настроем - тут не опереточные герои мир спасают. Добро пожаловать на арену, кровавую и жестокую, где каждый сам за себя. Это же ощущение дальше поддерживается еще тремя темами уже без вокалиста.

Где-то к середине альбома темп падает, но композиции не теряют свого сурового нрава. Какая-то дает себя почувствовать хищником, выжидающим в засаде жертву, другая - целенаправленной машиной убийства, что просто так слоняется по карте и стреляет во все, что шевелится. Тема Bass Attack как будто создана для дуэльных поединков, напряженная, но тихая (по сравнению с другими) она точно передает напряжение игроков, пытающихся найти друг друга на пустой карте. Скорость снова наращивается, возвращается «мясо», но более расчетливое и продуманное.

К Rocktronica и Fuel My Game музыка слегка меняется, подкрашивая звучание ярким и заводным настроем, но не становясь от этого менее брутальной. И завершающим аккордом идёт двенадцатый трек, мощный Adrenalin, как жемчужина всего альбома, как вишенка на торте - квинтэссенция всей той атмосферы, что дарит игра и так точно передает саундтрек. В ней (и только в ней) можно услышать такую близкую сердцу реплику "Quad damage!".

Бегать под такую музыку в техногенных декорациях кислотного раскраса, рвать своих противников на серые невзрачные ластики и вытрушивать из их жалких душенок все до последнего фраги - одно удовольствие. Sonic Mayhem уловил суровый дух Quake и сочинил подходящее злое звучание неприветливого мира битв, что спрятался по ту сторону монитора и ждет новых гостей-гладиаторов.
Добавил сканы. Просьба перекачать торрент!!!

Трекер:  [ 03-Фев-2012 20:12 ]

  

Скачать .torrent

Размер .torrent файла 13 KB


Размер: 318 MB
Хэш (hash) релиза: 56e98808366388c74e5fe9a008ad97cc5be3af8b

Торренты, похожие на Quake 3 Arena: Noise скачать торрент

Форум Название Автор Размер S L Добавлен
Саундтреки к играм (lossless) ·· (Score) Quake 3 Arena: Noise (by Sonic Mayhem) - 1999, FLAC (tracks+.cue), losslesss Galfimbul 334325482319 MB 0 0 1484495383

18:49

15-Янв-17

Саундтреки к играм (lossless) ·· (Soundtrack, Rock, Electronic) Sonic Mayhem - Quake 3 Arena: Noise - 1999, FLAC (image+.cue), lossless AqvaGen 318715279304 MB 0 0 1292262155

20:42

13-Дек-10

bot

Топик был перенесен в форум Саундтреки к аниме (lossless)

Перенес Galfimbul

Хотите добавить комментарий к записи скачать торрент Quake 3 Arena: Noise

!Обратная связь