8 Hours to Ensenada (2018) | Laible.und.Frisch.Do.goht.dr.Doig.2017.German.720p.BluRay.x264-iNKLUSiON | La piccola casa dei ricordi perduti

Скачать через торрент музыку The Legend of Zelda: Ocarina of Time ~Hyrule Symphony~ бесплатно без регистрации torrent

Статистика раздачи
Размер:  189 MB   |    Зарегистрирован:  6 лет 5 месяцев   |    .torrent скачан:  63 раза   |   
Раздают:  1  
   
загрузка...
 
Автор Сообщение

Galfimbul

avatar Galfimbul


The Legend of Zelda: Ocarina of Time ~Hyrule Symphony~
Жанр: Score
Композитор: Koji Kondo
Аранжировка: Ryuichi Katsumata
Год выпуска диска: 1999
Производитель диска: Japan
Издатель (лейбл): Players Planet
Номер по каталогу: ZMCX-102
Аудиокодек: FLAC (*.flac)
Тип рипа: tracks+.cue
Битрейт аудио: lossless
Продолжительность: 00:42:49
Источник: lztr.us

Треклист:
01. Title (04:03)
02. Kokiri Forest (02:10)
03. Hyrule Field (03:47)
04. Hyrule Castle (02:10)
05. Lon Lon Ranch (03:26)
06. Kakariko Village (03:06)
07. Goron City (02:58)
08. Zora's Domain (03:41)
09. Gerudo Valley (04:33)
10. Ganondorf (01:06)
11. Princess Zelda (03:05)
12. Ocarina Medley (03:52)
13. The Legend of Zelda Medley (04:48)
 
Exact Audio Copy V0.99 prebeta 5 from 4. May 2009

EAC extraction logfile from 26. September 2010, 15:53

Ryuichi Katsumata / The Legend of Zelda - Ocarina of Time ~Hyrule Symphony

Used drive : LITE-ON DVDRW SHW-160P6S Adapter: 3 ID: 0

Read mode : SecureUtilize accurate stream : YesDefeat audio cache : YesMake use of C2 pointers : No

Read offset correction : 6Overread into Lead-In and Lead-Out : NoFill up missing offset samples with silence : YesDelete leading and trailing silent blocks : NoNull samples used in CRC calculations : YesUsed interface : Native Win32 interface for Win NT & 2000Gap handling : Appended to previous track

Used output format : User Defined EncoderSelected bitrate : 1024 kBit/sQuality : HighAdd ID3 tag : NoCommand line compressor : C:\Program Files\Exact Audio Copy\mareo\mareo.exeAdditional command line options : fon son mareo.ini %s %d "%a" "%g" "%t" "%n" %y "%m" %x

TOC of the extracted CD

Track | Start | Length | Start sector | End sector --------------------------------------------------------- 1 | 0:00.00 | 4:03.07 | 0 | 18231 2 | 4:03.07 | 2:10.15 | 18232 | 27996 3 | 6:13.22 | 3:47.55 | 27997 | 45076 4 | 10:01.02 | 2:10.08 | 45077 | 54834 5 | 12:11.10 | 3:26.32 | 54835 | 70316 6 | 15:37.42 | 3:06.08 | 70317 | 84274 7 | 18:43.50 | 2:58.10 | 84275 | 97634 8 | 21:41.60 | 3:41.67 | 97635 | 114276 9 | 25:23.52 | 4:33.73 | 114277 | 134824 10 | 29:57.50 | 1:06.30 | 134825 | 139804 11 | 31:04.05 | 3:05.52 | 139805 | 153731 12 | 34:09.57 | 3:52.08 | 153732 | 171139 13 | 38:01.65 | 4:48.10 | 171140 | 192749

Track 1

Filename M:\My Music\My Music\EAC\01 Title.wav

Pre-gap length 0:00:02.00

Peak level 96.2 % Track quality 99.9 % Test CRC CDDF7F28 Copy CRC CDDF7F28 Cannot be verified as accurate (confidence 5) [2280D455], AccurateRip returned [8FD0E131] Copy OK

Track 2

Filename M:\My Music\My Music\EAC\02 Kokiri Forest.wav

Pre-gap length 0:00:00.05

Peak level 100.0 % Track quality 100.0 % Test CRC 3F96CEB2 Copy CRC 3F96CEB2 Cannot be verified as accurate (confidence 5) [56E65433], AccurateRip returned [2CA42F5B] Copy OK

Track 3

Filename M:\My Music\My Music\EAC\03 Hyrule Field.wav

Pre-gap length 0:00:00.05

Peak level 98.5 % Track quality 100.0 % Test CRC C4E604E1 Copy CRC C4E604E1 Cannot be verified as accurate (confidence 5) [672AF58A], AccurateRip returned [0AEF15CE] Copy OK

Track 4

Filename M:\My Music\My Music\EAC\04 Hyrule Castle.wav

Pre-gap length 0:00:00.05

Peak level 73.6 % Track quality 100.0 % Test CRC C9E15FEB Copy CRC C9E15FEB Cannot be verified as accurate (confidence 5) [5D0A9FF3], AccurateRip returned [FD775807] Copy OK

Track 5

Filename M:\My Music\My Music\EAC\05 Lon Lon Ranch.wav

Peak level 40.4 % Track quality 100.0 % Test CRC 7418E925 Copy CRC 7418E925 Cannot be verified as accurate (confidence 5) [FBBF0020], AccurateRip returned [7C829088] Copy OK

Track 6

Filename M:\My Music\My Music\EAC\06 Kakariko Village.wav

Peak level 77.2 % Track quality 100.0 % Test CRC 5D3F9AEC Copy CRC 5D3F9AEC Cannot be verified as accurate (confidence 5) [532AA546], AccurateRip returned [852F54CE] Copy OK

Track 7

Filename M:\My Music\My Music\EAC\07 Goron City.wav

Peak level 88.0 % Track quality 100.0 % Test CRC 8F261AD6 Copy CRC 8F261AD6 Cannot be verified as accurate (confidence 5) [30382495], AccurateRip returned [7C1AEB19] Copy OK

Track 8

Filename M:\My Music\My Music\EAC\08 Zora's Domain.wav

Pre-gap length 0:00:00.09

Peak level 85.3 % Track quality 100.0 % Test CRC 9A4964E2 Copy CRC 9A4964E2 Cannot be verified as accurate (confidence 5) [D6A99278], AccurateRip returned [E6FBF858] Copy OK

Track 9

Filename M:\My Music\My Music\EAC\09 Gerudo Valley.wav

Pre-gap length 0:00:00.26

Peak level 97.4 % Track quality 100.0 % Test CRC F058003A Copy CRC F058003A Cannot be verified as accurate (confidence 5) [4CD6041A], AccurateRip returned [86D8D9C6] Copy OK

Track 10

Filename M:\My Music\My Music\EAC\10 Ganondorf.wav

Peak level 100.0 % Track quality 99.8 % Test CRC 62849230 Copy CRC 62849230 Cannot be verified as accurate (confidence 5) [69B50BDF], AccurateRip returned [3E3D26AB] Copy OK

Track 11

Filename M:\My Music\My Music\EAC\11 Princess Zelda.wav

Pre-gap length 0:00:00.02

Peak level 39.8 % Track quality 100.0 % Test CRC 879A6AD9 Copy CRC 879A6AD9 Cannot be verified as accurate (confidence 5) [598747A3], AccurateRip returned [5D8E9237] Copy OK

Track 12

Filename M:\My Music\My Music\EAC\12 Ocarina Medley.wav

Pre-gap length 0:00:03.72

Peak level 69.5 % Track quality 99.9 % Test CRC 26A5BAFB Copy CRC 26A5BAFB Cannot be verified as accurate (confidence 5) [7E80EC15], AccurateRip returned [072DB981] Copy OK

Track 13

Filename M:\My Music\My Music\EAC\13 The Legend of Zelda Medley.wav

Pre-gap length 0:00:03.96

Peak level 100.0 % Track quality 100.0 % Test CRC 9A9DFE70 Copy CRC 9A9DFE70 Cannot be verified as accurate (confidence 5) [A31CD083], AccurateRip returned [163F5AEB] Copy OK

No tracks could be verified as accurateYou may have a different pressing from the one(s) in the database

No errors occurred

End of status report
 
REM GENRE GameREM DATE 1999REM DISCID AA0A0A0DREM COMMENT "ExactAudioCopy v0.99pb5"PERFORMER "Koji Kondo"TITLE "The Legend of Zelda: Ocarina of Time ~Hyrule Symphony~"FILE "01 Title.wav" WAVE TRACK 01 AUDIO TITLE "Title" PERFORMER "Koji Kondo" INDEX 01 00:00:00FILE "02 Kokiri Forest.wav" WAVE TRACK 02 AUDIO TITLE "Kokiri Forest" PERFORMER "Koji Kondo" INDEX 01 00:00:00FILE "03 Hyrule Field.wav" WAVE TRACK 03 AUDIO TITLE "Hyrule Field" PERFORMER "Koji Kondo" INDEX 01 00:00:00FILE "04 Hyrule Castle.wav" WAVE TRACK 04 AUDIO TITLE "Hyrule Castle" PERFORMER "Koji Kondo" INDEX 01 00:00:00FILE "05 Lon Lon Ranch.wav" WAVE TRACK 05 AUDIO TITLE "Lon Lon Ranch" PERFORMER "Koji Kondo" INDEX 01 00:00:00FILE "06 Kakariko Village.wav" WAVE TRACK 06 AUDIO TITLE "Kakariko Village" PERFORMER "Koji Kondo" INDEX 01 00:00:00FILE "07 Goron City.wav" WAVE TRACK 07 AUDIO TITLE "Goron City" PERFORMER "Koji Kondo" INDEX 01 00:00:00FILE "08 Zora's Domain.wav" WAVE TRACK 08 AUDIO TITLE "Zora's Domain" PERFORMER "Koji Kondo" INDEX 01 00:00:00FILE "09 Gerudo Valley.wav" WAVE TRACK 09 AUDIO TITLE "Gerudo Valley" PERFORMER "Koji Kondo" INDEX 01 00:00:00FILE "10 Ganondorf.wav" WAVE TRACK 10 AUDIO TITLE "Ganondorf" PERFORMER "Koji Kondo" INDEX 01 00:00:00FILE "11 Princess Zelda.wav" WAVE TRACK 11 AUDIO TITLE "Princess Zelda" PERFORMER "Koji Kondo" INDEX 01 00:00:00FILE "12 Ocarina Medley.wav" WAVE TRACK 12 AUDIO TITLE "Ocarina Medley" PERFORMER "Koji Kondo" INDEX 01 00:00:00FILE "13 The Legend of Zelda Medley.wav" WAVE TRACK 13 AUDIO TITLE "The Legend of Zelda Medley" PERFORMER "Koji Kondo" INDEX 01 00:00:00



Трекер:  [ 03-Фев-2012 20:08 ]

  

Скачать .torrent

Размер .torrent файла 16 KB


Размер: 189 MB
Хэш (hash) релиза: 02401e7b1d749d9eb71f4e58db039ac45dfbc598

Торренты, похожие на The Legend of Zelda: Ocarina of Time ~Hyrule Symphony~ скачать торрент

Форум Название Автор Размер S L Добавлен
Саундтреки к играм (mp3) ·· (Soundtrack/Game) The Legend of Zelda ~ Ocarina of Time - Hyrule Symphony - 1999, MP3, 320 kbps Cherterok 10283890598 MB 0 0 1292261275

20:27

13-Дек-10

bot

Топик был перенесен в форум Саундтреки к аниме (lossless)

Перенес Galfimbul

Хотите добавить комментарий к записи скачать торрент The Legend of Zelda: Ocarina of Time ~Hyrule Symphony~

!Обратная связь