Ein gesegnetes Team | Victor Sen Yung | Tirupati Express (2018) Hindi Dubbed 720p HDRip 1GB 350MB x264

Скачать через торрент музыку Symphonic Suite Final Fantasy бесплатно без регистрации torrent

Статистика раздачи
Размер:  191 MB   |    Зарегистрирован:  6 лет 5 месяцев   |    .torrent скачан:  31 раз   |   
Раздают:  1  
   
загрузка...
 
Автор Сообщение

Galfimbul

avatar Galfimbul


Symphonic Suite Final Fantasy
Жанр: Score
Композитор: Nobuo Uematsu
Аранжировка: Katsuhisa Hattori, Takayuki Hattori
Год выпуска диска: 1994
Производитель диска: Japan
Издатель (лейбл): DATAM Polystar
Номер по каталогу: PSCR-5253
Аудиокодек: FLAC (*.flac)
Тип рипа: tracks+.cue
Битрейт аудио: lossless
Продолжительность: 00:39:48
Источник: lztr.us
Наличие сканов в содержимом раздачи: да

Треклист:
01. SCENE I (04:19)
02. SCENE II (05:04)
03. SCENE III (06:08)
04. SCENE IV (05:24)
05. SCENE V ~PRELUDE~ (08:14)
06. SCENE VI (05:05)
07. SCENE VII (05:31)
 
Exact Audio Copy V0.99 prebeta 5 from 4. May 2009

EAC extraction logfile from 17. January 2011, 9:19

Nobuo Uematsu, Takayuki Hattori / Symphonic Suite Final Fantasy

Used drive : LITE-ON DVDRW SHW-160P6S Adapter: 3 ID: 0

Read mode : SecureUtilize accurate stream : YesDefeat audio cache : YesMake use of C2 pointers : No

Read offset correction : 6Overread into Lead-In and Lead-Out : NoFill up missing offset samples with silence : YesDelete leading and trailing silent blocks : NoNull samples used in CRC calculations : YesUsed interface : Native Win32 interface for Win NT & 2000Gap handling : Appended to previous track

Used output format : User Defined EncoderSelected bitrate : 1024 kBit/sQuality : HighAdd ID3 tag : NoCommand line compressor : C:\Program Files\Exact Audio Copy\Flac1.2.1b\flac.exeAdditional command line options : -V -8 -T "artist=%a" -T "title=%t" -T "album=%g" -T "date=%y" -T "tracknumber=%n" -T "genre=%m" %s

TOC of the extracted CD

Track | Start | Length | Start sector | End sector --------------------------------------------------------- 1 | 0:00.37 | 4:19.33 | 37 | 19494 2 | 4:19.70 | 5:04.62 | 19495 | 42356 3 | 9:24.57 | 6:08.25 | 42357 | 69981 4 | 15:33.07 | 5:24.40 | 69982 | 94321 5 | 20:57.47 | 8:14.48 | 94322 | 131419 6 | 29:12.20 | 5:05.15 | 131420 | 154309 7 | 34:17.35 | 5:31.15 | 154310 | 179149

Track 1

Filename M:\My Music\My Music\EAC\Symphonic Suite Final Fantasy\01 SCENE I.wav

Pre-gap length 0:00:02.49

Peak level 80.7 % Track quality 100.0 % Test CRC 75ADF365 Copy CRC 75ADF365 Accurately ripped (confidence 13) [4EA3C6CA] Copy OK

Track 2

Filename M:\My Music\My Music\EAC\Symphonic Suite Final Fantasy\02 SCENE II.wav

Pre-gap length 0:00:02.49

Peak level 99.4 % Track quality 99.9 % Test CRC E087848F Copy CRC E087848F Accurately ripped (confidence 13) [F05D912E] Copy OK

Track 3

Filename M:\My Music\My Music\EAC\Symphonic Suite Final Fantasy\03 SCENE III.wav

Pre-gap length 0:00:02.48

Peak level 78.7 % Track quality 100.0 % Test CRC C8A726E2 Copy CRC C8A726E2 Accurately ripped (confidence 13) [1225E225] Copy OK

Track 4

Filename M:\My Music\My Music\EAC\Symphonic Suite Final Fantasy\04 SCENE IV.wav

Pre-gap length 0:00:02.48

Peak level 80.9 % Track quality 100.0 % Test CRC 3919443F Copy CRC 3919443F Accurately ripped (confidence 13) [B5D88284] Copy OK

Track 5

Filename M:\My Music\My Music\EAC\Symphonic Suite Final Fantasy\05 SCENE V ~PRELUDE~.wav

Pre-gap length 0:00:04.48

Peak level 92.4 % Track quality 100.0 % Test CRC F9B6DBCF Copy CRC F9B6DBCF Accurately ripped (confidence 13) [004F5DE7] Copy OK

Track 6

Filename M:\My Music\My Music\EAC\Symphonic Suite Final Fantasy\06 SCENE VI.wav

Pre-gap length 0:00:03.49

Peak level 95.5 % Track quality 100.0 % Test CRC 08644278 Copy CRC 08644278 Accurately ripped (confidence 13) [2401488E] Copy OK

Track 7

Filename M:\My Music\My Music\EAC\Symphonic Suite Final Fantasy\07 SCENE VII.wav

Pre-gap length 0:00:02.49

Peak level 92.0 % Track quality 100.0 % Test CRC 1E85D7EB Copy CRC 1E85D7EB Accurately ripped (confidence 12) [CB15C278] Copy OK

All tracks accurately ripped

No errors occurred

End of status report
 
REM GENRE GameREM DATE 2001REM DISCID 5F095407REM COMMENT "ExactAudioCopy v0.99pb5"PERFORMER "Nobuo Uematsu"TITLE "Symphonic Suite Final Fantasy"FILE "01 SCENE I.wav" WAVE TRACK 01 AUDIO TITLE "SCENE I" PERFORMER "Nobuo Uematsu" PREGAP 00:00:37 INDEX 01 00:00:00 TRACK 02 AUDIO TITLE "SCENE II" PERFORMER "Nobuo Uematsu" INDEX 00 04:16:71FILE "02 SCENE II.wav" WAVE INDEX 01 00:00:00 TRACK 03 AUDIO TITLE "SCENE III" PERFORMER "Nobuo Uematsu" INDEX 00 05:02:26FILE "03 SCENE III.wav" WAVE INDEX 01 00:00:00 TRACK 04 AUDIO TITLE "SCENE IV" PERFORMER "Nobuo Uematsu" INDEX 00 06:05:64FILE "04 SCENE IV.wav" WAVE INDEX 01 00:00:00 TRACK 05 AUDIO TITLE "SCENE V ~PRELUDE~" PERFORMER "Nobuo Uematsu" INDEX 00 05:20:04FILE "05 SCENE V ~PRELUDE~.wav" WAVE INDEX 01 00:00:00 TRACK 06 AUDIO TITLE "SCENE VI" PERFORMER "Nobuo Uematsu" INDEX 00 08:11:11FILE "06 SCENE VI.wav" WAVE INDEX 01 00:00:00 TRACK 07 AUDIO TITLE "SCENE VII" PERFORMER "Nobuo Uematsu" INDEX 00 05:02:53FILE "07 SCENE VII.wav" WAVE INDEX 01 00:00:00



Трекер:  [ 03-Фев-2012 20:09 ]

  

Скачать .torrent

Размер .torrent файла 16 KB


Размер: 191 MB
Хэш (hash) релиза: 947fa0184c4891bb438079050faacced63b4b604

bot

Топик был перенесен в форум Саундтреки к аниме (lossless)

Перенес Galfimbul

Хотите добавить комментарий к записи скачать торрент Symphonic Suite Final Fantasy

!Обратная связь