Najcięższe więzienia w Stanach - Po wyjściu Lektor PL | Kup teraz w ebookpoint.pl | (2016) DVDRip Now More Than Ever: The Hi..

Скачать через торрент музыку Gears of War 3 бесплатно без регистрации torrent

Статистика раздачи
Размер:  409 MB   |    Зарегистрирован:  6 лет 5 месяцев   |    .torrent скачан:  52 раза   |   
Раздают:  1  
   
загрузка...
 
Автор Сообщение

Galfimbul

avatar Galfimbul


Gears of War 3

Жанр: Score
Композитор: Steve Jablonsky
Год выпуска диска: 2011
Производитель диска: USA
Издатель (лейбл): Sumthing Else Music Works
Номер по каталогу: SE-3013-2

Аудиокодек: FLAC (*.flac)
Тип рипа: tracks+.cue
Битрейт аудио: lossless
Продолжительность: 1:18:56

Источник: what.cd
Наличие сканов в содержимом раздачи: нет
01. Restless (1:04)
02. Gears Keep Turning (3:01)
03. Meanwhile Below Deck (1:21)
04. Stalk City (2:12)
<span style="font-family: tahoma;">05. High Seas Tension (1:49)
<span style="font-family: tahoma;">06. Infected Large and Hungry (1:39)
<span style="font-family: tahoma;">07. Marcus' Rock (1:40)
<span style="font-family: tahoma;">08. Calm before Chaos (2:13)
<span style="font-family: tahoma;">09. Bridge Too Far Indeed (3:42)
<span style="font-family: tahoma;">10. Those Aren't Stranded (2:13)
<span style="font-family: tahoma;">11. Forever Omen (2:06)
<span style="font-family: tahoma;">12. Hanover's Favorite Son (1:43)
<span style="font-family: tahoma;">13. Fence House Suicide Pills (2:09)
<span style="font-family: tahoma;">14. Ghost Town (1:43)
<span style="font-family: tahoma;">15. A Fine Mess (3:31)
<span style="font-family: tahoma;">16. Loss of a Leader (2:10)
<span style="font-family: tahoma;">17. Deadland Dance (5:17)
<span style="font-family: tahoma;">18. Creeping Dread (2:25)
<span style="font-family: tahoma;">19. Hammer Meet Anvil (3:05)
<span style="font-family: tahoma;">20. Corpser Ambush (2:15)
<span style="font-family: tahoma;">21. Last Resort (1:27)
<span style="font-family: tahoma;">22. Full Circle (3:43)
<span style="font-family: tahoma;">23. Jumped Species Barrier (2:06)
<span style="font-family: tahoma;">24. Ashes Fall Down (4:02)
<span style="font-family: tahoma;">25. Fathoms Below (2:37)
<span style="font-family: tahoma;">26. Gasbag Airways (2:06)
<span style="font-family: tahoma;">27. Paradise Found (3:11)
<span style="font-family: tahoma;">28. Father and Son (2:25)
<span style="font-family: tahoma;">29. Fury of the Tempest (3:12)
<span style="font-family: tahoma;">30. Live for Me (2:52)
<span style="font-family: tahoma;">31. Finally a Tomorrow (3:58)</span></span></span></span></span></span></span></span></span></span></span></span></span></span></span></span></span></span></span></span></span></span></span></span></span></span></span>
 
Exact Audio Copy V1.0 beta 3 from 29. August 2011

EAC extraction logfile from 26. September 2011, 20:26

Steve Jablonsky / Gears of War 3 The Soundtrack

Used drive : HL-DT-STBDDVDRW UH10LS20 Adapter: 0 ID: 2

Read mode : SecureUtilize accurate stream : YesDefeat audio cache : YesMake use of C2 pointers : No

Read offset correction : 667Overread into Lead-In and Lead-Out : NoFill up missing offset samples with silence : YesDelete leading and trailing silent blocks : NoNull samples used in CRC calculations : YesUsed interface : Native Win32 interface for Win NT & 2000Gap handling : Appended to previous track

Used output format : User Defined EncoderSelected bitrate : 32 kBit/sQuality : HighAdd ID3 tag : NoCommand line compressor : C:\Program Files (x86)\Exact Audio Copy\mareo\mareo.exeAdditional command line options : fon soff mareo.ini %source% %dest% "%artist%" "%albumtitle%" "%title%" "%tracknr%" %year% "%genre%" %numtracks%

TOC of the extracted CD

Track | Start | Length | Start sector | End sector --------------------------------------------------------- 1 | 0:00.00 | 1:03.40 | 0 | 4764 2 | 1:03.40 | 3:00.62 | 4765 | 18326 3 | 4:04.27 | 1:21.35 | 18327 | 24436 4 | 5:25.62 | 2:12.26 | 24437 | 34362 5 | 7:38.13 | 1:49.08 | 34363 | 42545 6 | 9:27.21 | 1:38.67 | 42546 | 49962 7 | 11:06.13 | 1:40.25 | 49963 | 57487 8 | 12:46.38 | 2:13.09 | 57488 | 67471 9 | 14:59.47 | 3:41.41 | 67472 | 84087 10 | 18:41.13 | 2:13.28 | 84088 | 94090 11 | 20:54.41 | 2:05.72 | 94091 | 103537 12 | 23:00.38 | 1:43.15 | 103538 | 111277 13 | 24:43.53 | 2:08.48 | 111278 | 120925 14 | 26:52.26 | 1:42.38 | 120926 | 128613 15 | 28:34.64 | 3:31.36 | 128614 | 144474 16 | 32:06.25 | 2:09.55 | 144475 | 154204 17 | 34:16.05 | 5:17.13 | 154205 | 177992 18 | 39:33.18 | 2:24.64 | 177993 | 188856 19 | 41:58.07 | 3:05.25 | 188857 | 202756 20 | 45:03.32 | 2:15.16 | 202757 | 212897 21 | 47:18.48 | 1:26.49 | 212898 | 219396 22 | 48:45.22 | 3:42.60 | 219397 | 236106 23 | 52:28.07 | 2:05.39 | 236107 | 245520 24 | 54:33.46 | 4:01.64 | 245521 | 263659 25 | 58:35.35 | 2:36.46 | 263660 | 275405 26 | 61:12.06 | 2:06.28 | 275406 | 284883 27 | 63:18.34 | 3:11.20 | 284884 | 299228 28 | 66:29.54 | 2:24.66 | 299229 | 310094 29 | 68:54.45 | 3:11.71 | 310095 | 324490 30 | 72:06.41 | 2:52.31 | 324491 | 337421 31 | 74:58.72 | 3:58.00 | 337422 | 355271

Track 1

Filename F:\Encoded Music\Gears of War 3 Soundtrack\01. Restless.wav

Pre-gap length 0:00:02.00

Peak level 92.3 % Extraction speed 0.8 X Track quality 100.0 % Test CRC 0812E6E2 Copy CRC 0812E6E2 Track not present in AccurateRip database Copy OK

Track 2

Filename F:\Encoded Music\Gears of War 3 Soundtrack\02. Gears Keep Turning.wav

Pre-gap length 0:00:02.00

Peak level 97.7 % Extraction speed 1.2 X Track quality 100.0 % Test CRC 740241E0 Copy CRC 740241E0 Track not present in AccurateRip database Copy OK

Track 3

Filename F:\Encoded Music\Gears of War 3 Soundtrack\03. Meanwhile Below Deck.wav

Pre-gap length 0:00:02.00

Peak level 90.4 % Extraction speed 1.0 X Track quality 100.0 % Test CRC 7E2BFC16 Copy CRC 7E2BFC16 Track not present in AccurateRip database Copy OK

Track 4

Filename F:\Encoded Music\Gears of War 3 Soundtrack\04. Stalk City.wav

Pre-gap length 0:00:02.00

Peak level 98.1 % Extraction speed 1.2 X Track quality 100.0 % Test CRC 21B845D0 Copy CRC 21B845D0 Track not present in AccurateRip database Copy OK

Track 5

Filename F:\Encoded Music\Gears of War 3 Soundtrack\05. High Seas Tension.wav

Pre-gap length 0:00:02.00

Peak level 84.1 % Extraction speed 1.2 X Track quality 100.0 % Test CRC F14F9ABE Copy CRC F14F9ABE Track not present in AccurateRip database Copy OK

Track 6

Filename F:\Encoded Music\Gears of War 3 Soundtrack\06. Infected Large and Hungry.wav

Pre-gap length 0:00:02.00

Peak level 93.7 % Extraction speed 1.2 X Track quality 100.0 % Test CRC E0E61E4C Copy CRC E0E61E4C Track not present in AccurateRip database Copy OK

Track 7

Filename F:\Encoded Music\Gears of War 3 Soundtrack\07. Marcus' Rock.wav

Pre-gap length 0:00:02.00

Peak level 97.3 % Extraction speed 1.2 X Track quality 100.0 % Test CRC E1D6A2EB Copy CRC E1D6A2EB Track not present in AccurateRip database Copy OK

Track 8

Filename F:\Encoded Music\Gears of War 3 Soundtrack\08. Calm before Chaos.wav

Pre-gap length 0:00:02.00

Peak level 64.8 % Extraction speed 1.1 X Track quality 99.9 % Test CRC ED067339 Copy CRC ED067339 Track not present in AccurateRip database Copy OK

Track 9

Filename F:\Encoded Music\Gears of War 3 Soundtrack\09. Bridge Too Far Indeed.wav

Pre-gap length 0:00:02.00

Peak level 97.8 % Extraction speed 1.6 X Track quality 100.0 % Test CRC 557AC82D Copy CRC 557AC82D Track not present in AccurateRip database Copy OK

Track 10

Filename F:\Encoded Music\Gears of War 3 Soundtrack\10. Those Aren't Stranded.wav

Pre-gap length 0:00:02.00

Peak level 88.6 % Extraction speed 1.5 X Track quality 100.0 % Test CRC 065942E1 Copy CRC 065942E1 Track not present in AccurateRip database Copy OK

Track 11

Filename F:\Encoded Music\Gears of War 3 Soundtrack\11. Forever Omen.wav

Pre-gap length 0:00:02.00

Peak level 97.9 % Extraction speed 1.5 X Track quality 100.0 % Test CRC BE9BAA0F Copy CRC BE9BAA0F Track not present in AccurateRip database Copy OK

Track 12

Filename F:\Encoded Music\Gears of War 3 Soundtrack\12. Hanover's Favorite Son.wav

Pre-gap length 0:00:02.00

Peak level 96.8 % Extraction speed 1.5 X Track quality 100.0 % Test CRC 671531C4 Copy CRC 671531C4 Track not present in AccurateRip database Copy OK

Track 13

Filename F:\Encoded Music\Gears of War 3 Soundtrack\13. Fence House Suicide Pills.wav

Pre-gap length 0:00:02.00

Peak level 90.8 % Extraction speed 1.6 X Track quality 100.0 % Test CRC 793A5B7B Copy CRC 793A5B7B Track not present in AccurateRip database Copy OK

Track 14

Filename F:\Encoded Music\Gears of War 3 Soundtrack\14. Ghost Town.wav

Pre-gap length 0:00:02.00

Peak level 96.5 % Extraction speed 1.6 X Track quality 100.0 % Test CRC 129F5281 Copy CRC 129F5281 Track not present in AccurateRip database Copy OK

Track 15

Filename F:\Encoded Music\Gears of War 3 Soundtrack\15. A Fine Mess.wav

Pre-gap length 0:00:02.00

Peak level 97.4 % Extraction speed 1.6 X Track quality 99.9 % Test CRC 0CF9F64B Copy CRC 0CF9F64B Track not present in AccurateRip database Copy OK

Track 16

Filename F:\Encoded Music\Gears of War 3 Soundtrack\16. Loss of a Leader.wav

Pre-gap length 0:00:02.00

Peak level 96.6 % Extraction speed 1.8 X Track quality 100.0 % Test CRC D8851B92 Copy CRC D8851B92 Track not present in AccurateRip database Copy OK

Track 17

Filename F:\Encoded Music\Gears of War 3 Soundtrack\17. Deadland Dance.wav

Pre-gap length 0:00:02.00

Peak level 98.5 % Extraction speed 2.1 X Track quality 100.0 % Test CRC 1657A0DA Copy CRC 1657A0DA Track not present in AccurateRip database Copy OK

Track 18

Filename F:\Encoded Music\Gears of War 3 Soundtrack\18. Creeping Dread.wav

Pre-gap length 0:00:02.00

Peak level 78.6 % Extraction speed 1.9 X Track quality 100.0 % Test CRC 81CD8D37 Copy CRC 81CD8D37 Track not present in AccurateRip database Copy OK

Track 19

Filename F:\Encoded Music\Gears of War 3 Soundtrack\19. Hammer Meet Anvil.wav

Pre-gap length 0:00:02.00

Peak level 95.6 % Extraction speed 2.1 X Track quality 100.0 % Test CRC 42D8997B Copy CRC 42D8997B Track not present in AccurateRip database Copy OK

Track 20

Filename F:\Encoded Music\Gears of War 3 Soundtrack\20. Corpser Ambush.wav

Pre-gap length 0:00:02.00

Peak level 97.3 % Extraction speed 2.0 X Track quality 100.0 % Test CRC 40AAEE80 Copy CRC 40AAEE80 Track not present in AccurateRip database Copy OK

Track 21

Filename F:\Encoded Music\Gears of War 3 Soundtrack\21. Last Resort.wav

Pre-gap length 0:00:02.00

Peak level 96.4 % Extraction speed 1.4 X Track quality 99.8 % Test CRC 9465095A Copy CRC 9465095A Track not present in AccurateRip database Copy OK

Track 22

Filename F:\Encoded Music\Gears of War 3 Soundtrack\22. Full Circle.wav

Pre-gap length 0:00:02.00

Peak level 97.1 % Extraction speed 2.2 X Track quality 100.0 % Test CRC 06457862 Copy CRC 06457862 Track not present in AccurateRip database Copy OK

Track 23

Filename F:\Encoded Music\Gears of War 3 Soundtrack\23. Jumped Species Barrier.wav

Pre-gap length 0:00:02.00

Peak level 97.3 % Extraction speed 1.7 X Track quality 99.9 % Test CRC 03E84AB8 Copy CRC 03E84AB8 Track not present in AccurateRip database Copy OK

Track 24

Filename F:\Encoded Music\Gears of War 3 Soundtrack\24. Ashes Fall Down.wav

Pre-gap length 0:00:02.00

Peak level 97.8 % Extraction speed 2.4 X Track quality 100.0 % Test CRC 78B3DEA7 Copy CRC 78B3DEA7 Track not present in AccurateRip database Copy OK

Track 25

Filename F:\Encoded Music\Gears of War 3 Soundtrack\25. Fathoms Below.wav

Pre-gap length 0:00:02.00

Peak level 96.9 % Extraction speed 2.3 X Track quality 100.0 % Test CRC 462BA8DA Copy CRC 462BA8DA Track not present in AccurateRip database Copy OK

Track 26

Filename F:\Encoded Music\Gears of War 3 Soundtrack\26. Gasbag Airways.wav

Pre-gap length 0:00:02.00

Peak level 97.6 % Extraction speed 2.2 X Track quality 100.0 % Test CRC 5E5857DA Copy CRC 5E5857DA Track not present in AccurateRip database Copy OK

Track 27

Filename F:\Encoded Music\Gears of War 3 Soundtrack\27. Paradise Found.wav

Pre-gap length 0:00:02.00

Peak level 98.8 % Extraction speed 2.4 X Track quality 100.0 % Test CRC AF23E27D Copy CRC AF23E27D Track not present in AccurateRip database Copy OK

Track 28

Filename F:\Encoded Music\Gears of War 3 Soundtrack\28. Father and Son.wav

Pre-gap length 0:00:02.00

Peak level 97.1 % Extraction speed 2.3 X Track quality 100.0 % Test CRC CF0DA3F9 Copy CRC CF0DA3F9 Track not present in AccurateRip database Copy OK

Track 29

Filename F:\Encoded Music\Gears of War 3 Soundtrack\29. Fury of the Tempest.wav

Pre-gap length 0:00:02.00

Peak level 98.6 % Extraction speed 2.5 X Track quality 100.0 % Test CRC 8C37A5F5 Copy CRC 8C37A5F5 Track not present in AccurateRip database Copy OK

Track 30

Filename F:\Encoded Music\Gears of War 3 Soundtrack\30. Live for Me.wav

Pre-gap length 0:00:02.00

Peak level 85.9 % Extraction speed 2.5 X Track quality 100.0 % Test CRC 99BE037C Copy CRC 99BE037C Track not present in AccurateRip database Copy OK

Track 31

Filename F:\Encoded Music\Gears of War 3 Soundtrack\31. Finally a Tomorrow.wav

Pre-gap length 0:00:02.00

Peak level 97.2 % Extraction speed 2.7 X Track quality 100.0 % Test CRC 8712A7E3 Copy CRC 8712A7E3 Track not present in AccurateRip database Copy OK

None of the tracks are present in the AccurateRip database

No errors occurred

End of status report

==== Log checksum A66F2E67804AF89F91AB98AA35C57C4A919A9693E97BAA7497776B1DDA0368A3 ====
 
REM GENRE SoundtrackREM DATE 2011REM DISCID BB12801FREM COMMENT "ExactAudioCopy v1.0b3"PERFORMER "Steve Jablonsky"TITLE "Gears of War 3 The Soundtrack"FILE "01. Restless.flac" WAVE TRACK 01 AUDIO TITLE "Restless" PERFORMER "Steve Jablonsky" INDEX 01 00:00:00 TRACK 02 AUDIO TITLE "Gears Keep Turning" PERFORMER "Steve Jablonsky" INDEX 00 01:01:40FILE "02. Gears Keep Turning.flac" WAVE INDEX 01 00:00:00 TRACK 03 AUDIO TITLE "Meanwhile Below Deck" PERFORMER "Steve Jablonsky" INDEX 00 02:58:62FILE "03. Meanwhile Below Deck.flac" WAVE INDEX 01 00:00:00 TRACK 04 AUDIO TITLE "Stalk City" PERFORMER "Steve Jablonsky" INDEX 00 01:19:35FILE "04. Stalk City.flac" WAVE INDEX 01 00:00:00 TRACK 05 AUDIO TITLE "High Seas Tension" PERFORMER "Steve Jablonsky" INDEX 00 02:10:26FILE "05. High Seas Tension.flac" WAVE INDEX 01 00:00:00 TRACK 06 AUDIO TITLE "Infected Large and Hungry" PERFORMER "Steve Jablonsky" INDEX 00 01:47:08FILE "06. Infected Large and Hungry.flac" WAVE INDEX 01 00:00:00 TRACK 07 AUDIO TITLE "Marcus' Rock" PERFORMER "Steve Jablonsky" INDEX 00 01:36:67FILE "07. Marcus' Rock.flac" WAVE INDEX 01 00:00:00 TRACK 08 AUDIO TITLE "Calm before Chaos" PERFORMER "Steve Jablonsky" INDEX 00 01:38:25FILE "08. Calm before Chaos.flac" WAVE INDEX 01 00:00:00 TRACK 09 AUDIO TITLE "Bridge Too Far Indeed" PERFORMER "Steve Jablonsky" INDEX 00 02:11:09FILE "09. Bridge Too Far Indeed.flac" WAVE INDEX 01 00:00:00 TRACK 10 AUDIO TITLE "Those Aren't Stranded" PERFORMER "Steve Jablonsky" INDEX 00 03:39:41FILE "10. Those Aren't Stranded.flac" WAVE INDEX 01 00:00:00 TRACK 11 AUDIO TITLE "Forever Omen" PERFORMER "Steve Jablonsky" INDEX 00 02:11:28FILE "11. Forever Omen.flac" WAVE INDEX 01 00:00:00 TRACK 12 AUDIO TITLE "Hanover's Favorite Son" PERFORMER "Steve Jablonsky" INDEX 00 02:03:72FILE "12. Hanover's Favorite Son.flac" WAVE INDEX 01 00:00:00 TRACK 13 AUDIO TITLE "Fence House Suicide Pills" PERFORMER "Steve Jablonsky" INDEX 00 01:41:15FILE "13. Fence House Suicide Pills.flac" WAVE INDEX 01 00:00:00 TRACK 14 AUDIO TITLE "Ghost Town" PERFORMER "Steve Jablonsky" INDEX 00 02:06:48FILE "14. Ghost Town.flac" WAVE INDEX 01 00:00:00 TRACK 15 AUDIO TITLE "A Fine Mess" PERFORMER "Steve Jablonsky" INDEX 00 01:40:38FILE "15. A Fine Mess.flac" WAVE INDEX 01 00:00:00 TRACK 16 AUDIO TITLE "Loss of a Leader" PERFORMER "Steve Jablonsky" INDEX 00 03:29:36FILE "16. Loss of a Leader.flac" WAVE INDEX 01 00:00:00 TRACK 17 AUDIO TITLE "Deadland Dance" PERFORMER "Steve Jablonsky" INDEX 00 02:07:55FILE "17. Deadland Dance.flac" WAVE INDEX 01 00:00:00 TRACK 18 AUDIO TITLE "Creeping Dread" PERFORMER "Steve Jablonsky" INDEX 00 05:15:13FILE "18. Creeping Dread.flac" WAVE INDEX 01 00:00:00 TRACK 19 AUDIO TITLE "Hammer Meet Anvil" PERFORMER "Steve Jablonsky" INDEX 00 02:22:64FILE "19. Hammer Meet Anvil.flac" WAVE INDEX 01 00:00:00 TRACK 20 AUDIO TITLE "Corpser Ambush" PERFORMER "Steve Jablonsky" INDEX 00 03:03:25FILE "20. Corpser Ambush.flac" WAVE INDEX 01 00:00:00 TRACK 21 AUDIO TITLE "Last Resort" PERFORMER "Steve Jablonsky" INDEX 00 02:13:16FILE "21. Last Resort.flac" WAVE INDEX 01 00:00:00 TRACK 22 AUDIO TITLE "Full Circle" PERFORMER "Steve Jablonsky" INDEX 00 01:24:49FILE "22. Full Circle.flac" WAVE INDEX 01 00:00:00 TRACK 23 AUDIO TITLE "Jumped Species Barrier" PERFORMER "Steve Jablonsky" INDEX 00 03:40:60FILE "23. Jumped Species Barrier.flac" WAVE INDEX 01 00:00:00 TRACK 24 AUDIO TITLE "Ashes Fall Down" PERFORMER "Steve Jablonsky" INDEX 00 02:03:39FILE "24. Ashes Fall Down.flac" WAVE INDEX 01 00:00:00 TRACK 25 AUDIO TITLE "Fathoms Below" PERFORMER "Steve Jablonsky" INDEX 00 03:59:64FILE "25. Fathoms Below.flac" WAVE INDEX 01 00:00:00 TRACK 26 AUDIO TITLE "Gasbag Airways" PERFORMER "Steve Jablonsky" INDEX 00 02:34:46FILE "26. Gasbag Airways.flac" WAVE INDEX 01 00:00:00 TRACK 27 AUDIO TITLE "Paradise Found" PERFORMER "Steve Jablonsky" INDEX 00 02:04:28FILE "27. Paradise Found.flac" WAVE INDEX 01 00:00:00 TRACK 28 AUDIO TITLE "Father and Son" PERFORMER "Steve Jablonsky" INDEX 00 03:09:20FILE "28. Father and Son.flac" WAVE INDEX 01 00:00:00 TRACK 29 AUDIO TITLE "Fury of the Tempest" PERFORMER "Steve Jablonsky" INDEX 00 02:22:66FILE "29. Fury of the Tempest.flac" WAVE INDEX 01 00:00:00 TRACK 30 AUDIO TITLE "Live for Me" PERFORMER "Steve Jablonsky" INDEX 00 03:09:71FILE "30. Live for Me.flac" WAVE INDEX 01 00:00:00 TRACK 31 AUDIO TITLE "Finally a Tomorrow" PERFORMER "Steve Jablonsky" INDEX 00 02:50:31FILE "31. Finally a Tomorrow.flac" WAVE INDEX 01 00:00:00
 
AUDIOCHECKER v2.0 beta (build 457) - by Dester - [email protected]~~~~~~~~~~~~~~~~~~~~~~~~~~~~~~~~~~-=== НЕ РЕДАКТИРУЙТЕ ЭТОТ ФАЙЛ! ===-

Путь: ...\Steve Jablonsky - Gears of War 3 The Soundtrack - 2011 [FLAC]

01 -=- 01 Restless.flac -=- CDDA (99%)02 -=- 02 Gears Keep Turning.flac -=- CDDA (100%)03 -=- 03 Meanwhile Below Deck.flac -=- CDDA (99%)04 -=- 04 Stalk City.flac -=- CDDA (99%)05 -=- 05 High Seas Tension.flac -=- CDDA (100%)06 -=- 06 Infected Large and Hungry.flac -=- CDDA (99%)07 -=- 07 Marcus' Rock.flac -=- CDDA (100%)08 -=- 08 Calm before Chaos.flac -=- CDDA (100%)09 -=- 09 Bridge Too Far Indeed.flac -=- CDDA (100%)10 -=- 10 Those Aren't Stranded.flac -=- CDDA (100%)11 -=- 11 Forever Omen.flac -=- CDDA (100%)12 -=- 12 Hanover's Favorite Son.flac -=- CDDA (100%)13 -=- 13 Fence House Suicide Pills.flac -=- CDDA (100%)14 -=- 14 Ghost Town.flac -=- CDDA (100%)15 -=- 15 A Fine Mess.flac -=- CDDA (100%)16 -=- 16 Loss of a Leader.flac -=- CDDA (100%)17 -=- 17 Deadland Dance.flac -=- CDDA (100%)18 -=- 18 Creeping Dread.flac -=- CDDA (100%)19 -=- 19 Hammer Meet Anvil.flac -=- CDDA (100%)20 -=- 20 Corpser Ambush.flac -=- CDDA (100%)21 -=- 21 Last Resort.flac -=- CDDA (100%)22 -=- 22 Full Circle.flac -=- CDDA (100%)23 -=- 23 Jumped Species Barrier.flac -=- CDDA (100%)24 -=- 24 Ashes Fall Down.flac -=- CDDA (100%)25 -=- 25 Fathoms Below.flac -=- CDDA (99%)26 -=- 26 Gasbag Airways.flac -=- CDDA (100%)27 -=- 27 Paradise Found.flac -=- CDDA (100%)28 -=- 28 Father and Son.flac -=- CDDA (100%)29 -=- 29 Fury of the Tempest.flac -=- CDDA (100%)30 -=- 30 Live for Me.flac -=- CDDA (99%)31 -=- 31 Finally a Tomorrow.flac -=- CDDA (100%)

Сводка 99,81% CDDA

99518500



Трекер:  [ 03-Фев-2012 20:08 ]

  

Скачать .torrent

Размер .torrent файла 18 KB


Размер: 409 MB
Хэш (hash) релиза: 108380ead86e9e970d5dfd4d2a2e7f3bace7853b

Торренты, похожие на Gears of War 3 скачать торрент

Форум Название Автор Размер S L Добавлен
Саундтреки к играм (mp3) ·· (Score) Gears of War 3: The Soundtrack (2011) MP3, 320 kbps Phoenix 189827329181 MB 0 0 1315722965

09:36

11-Сен-11

Саундтреки к играм (mp3) ·· (Score) Gears Of War 1-3, Judgment (by Kevin Riepl, Steve Jablonsky & Jacob Shea) - 2007-2013, MP3, 320 kbps Galfimbul 644042338614 MB 0 0 1374936203

17:43

27-Июл-13

bot

Топик был перенесен в форум Саундтреки к аниме (lossless)

Перенес Galfimbul

Хотите добавить комментарий к записи скачать торрент Gears of War 3

!Обратная связь