Nat Geo Wild: Змеи в городе / Snakes in the city [01-10] (2017) HDTVRip | P1 | Download | Mtv Floribama Shore: ...

Скачать через торрент Я худею Фильм бесплатно в хорошем качестве torrent

Скачивайте на UnionPeer.org фильмы через торрент без регистрации. Новинки кино в хорошем качестве через торрент. На UnionPeer.org можно скачать через торрент фильмы 2014 и 2015 годов. Самые новые фильмы.

Скачать торрент Я худею бесплатно через .torrent фильм мультфильм сериал

Статистика раздачи
Размер:  1.46 GB   |    Зарегистрирован:  8 дней   |    .torrent скачан:  56 раз   |   
Раздают:  2  
   
загрузка...
 
Автор Сообщение

Galfimbul

avatar Galfimbul


Я худею



[b]Год выхода:
2018
Жанр: Комедия
Страна: Россия
Перевод: Не требуется
Продолжительность: 01:42:40
Режиссер: Алексей Нужный
В ролях: Александра Бортич, Ирина Горбачева, Сергей Шнуров, Евгений Кулик, Роман Курцын, Александр Пташенчук, Елена Валюшкина, Валерия Дергилева, Андрей Трушин, Олег Кассин и др.

О фильме: В жизни Ани есть две главные любви — её парень Женя и еда. Из-за еды они и расстаются: Жене совсем не нравится, как Аня стала выглядеть. Аня не готова просто сдаться. При поддержке лучшей подруги и увлечённого здоровым образом жизни добряка Коли она пускается в увлекательное приключение, чтобы похудеть и обрести любовь и счастье.



Файл
Формат: AVI
Качество: BDRip
Видео: Xvid, 720x320, ~1581 kbps, 24,000 fps
Звук: русский, AC3 5.1, 48 kHz, 448 kbps | Лицензия
Субтитры: нет
General
Полное имя : F:TorrentJaHudeyuBDRipAVI.avi
Формат : AVI
Формат/Информация : Audio Video Interleave
Размер файла : 1.46 GiB
Продолжительность : 1 h 42 min
Общий поток : 2 038 kb/s
Библиотека кодирования : VirtualDub build 35491/release

Video
Идентификатор : 0
Формат : MPEG-4 Visual
Профиль формата : Advanced [email protected]
Настройки формата : BVOP2 / Custom Matrix
Параметр BVOP формата : 2
Параметр QPel формата : No
Параметр GMC формата : No warppoints
Параметр матрицы формата : Custom
Идентификатор кодека : XVID
Идентификатор кодека/Подсказка : XviD
Продолжительность : 1 h 42 min
Битрейт : 1 581 kb/s
Ширина : 720 pixels
Высота : 320 pixels
Соотношение сторон : 2.25:1
Частота кадров : 24.000 FPS
Цветовое пространство : YUV
Субдискретизация насыщенности : 4:2:0
Битовая глубина : 8 bits
Тип развёртки : Progressive
Метод сжатия : Lossy
Бит/(Пиксели*Кадры) : 0.286
Размер потока : 1.13 GiB (78%)
Библиотека кодирования : XviD 67

Audio
Идентификатор : 1
Формат : AC-3
Формат/Информация : Audio Coding 3
Идентификатор кодека : 2000
Продолжительность : 1 h 42 min
Вид битрейта : Constant
Битрейт : 448 kb/s
Каналы : 6 channels
Расположение каналов : Front: L C R, Side: L R, LFE
Частота : 48.0 kHz
Частота кадров : 31.250 FPS (1536 SPF)
Битовая глубина : 16 bits
Метод сжатия : Lossy
Размер потока : 329 MiB (22%)
Выравнивание : Aligned on interleaves
Продолжительность промежутка : 42 ms (1.00 video frame)
Время предзагрузки промежутка : 512 ms
Источник http://BlaTor.org

Трекер:  [ 14-Июл-2018 12:30 ]

  

Скачать .torrent

Размер .torrent файла 15 KB


Размер: 1.46 GB
Хэш (hash) релиза: a1662871fefd9ce41329d530e3336c8da29d094c
Подписка на обновления:

Торренты, похожие на Я худею скачать торрент

Форум Название Автор Размер S L Добавлен
Российские фильмы 2016-2018 (Новинки русского кино) ·%· Я худею (2018) BDRip-AVC от OlLanDGroup | Лицензия Galfimbul 779640451744 MB 3 0 1532222439

04:20

22-Июл-18

Российские фильмы до 2016 ·%· Я худею (Алексей Нужный) [2018, Россия, комедия, BDRip 720p] Original Rus Galfimbul 45032868104.19 GB 0 0 1532174529

15:02

21-Июл-18

Российские фильмы 2016-2018 (Новинки русского кино) ·%· Я худею (2018) BDRip 720p от HELLYWOOD | Лицензия Galfimbul 46876831414.37 GB 0 0 1532145615

07:00

21-Июл-18

Российские фильмы 2016-2018 (Новинки русского кино) ·%· Я худею (2018) BDRip от ExKinoRay | Лицензия Galfimbul 15683635841.46 GB 0 0 1532091031

15:50

20-Июл-18

Российские фильмы 2016-2018 (Новинки русского кино) ·%· Я худею (2018) BDRip от MegaPeer | Лицензия Galfimbul 15685529601.46 GB 0 0 1532038215

01:10

20-Июл-18

Российские фильмы 2016-2018 (Новинки русского кино) ·%· Я худею (2018) BDRemux 1080p от OlLanDGroup | Лицензия Galfimbul 2374481376322.11 GB 0 0 1532034062

00:01

20-Июл-18

Российские фильмы 2016-2018 (Новинки русского кино) ·%· Я худею (2018) Blu-ray 1080p | Лицензия Galfimbul 2497230070123.26 GB 0 0 1532032815

23:40

19-Июл-18

Российские фильмы 2016-2018 (Новинки русского кино) ·%· Я худею (2018) BDRip-AVC | Лицензия Galfimbul 23391205402.18 GB 2 0 1531560631

12:30

14-Июл-18

Российские фильмы 2016-2018 (Новинки русского кино) ·%· Я худею (2018) BDRip 720p | Лицензия Galfimbul 58778920135.47 GB 0 0 1531560621

12:30

14-Июл-18

Российские фильмы 2016-2018 (Новинки русского кино) ·%· Я худею (2018) BDRip 1080p | Лицензия Galfimbul 93504210198.71 GB 0 0 1531560611

12:30

14-Июл-18

Российские фильмы до 2016 ·· Я худею (Алексей Нужный) [2018, комедия, WEB-DLRip] Galfimbul 780314624744 MB 2 0 1524979453

08:24

29-Апр-18

Российские фильмы 2016-2018 (Новинки русского кино) ·· Я худею (Алексей Нужный) [2018, комедия, WEB-DLRip-AVC] iTunes Galfimbul 781653986745 MB 0 0 1524777626

00:20

27-Апр-18

Российские фильмы до 2016 ·· Я худею (Алексей Нужный) [2018, комедия, WEB-DLRip-AVC] Galfimbul 15981848291.49 GB 0 0 1524743663

14:54

26-Апр-18

Российские фильмы до 2016 ·· Я худею (Алексей Нужный) [2018, Россия, комедия, WEB-DL 1080p] Original Rus Galfimbul 36880322023.43 GB 0 0 1524724244

09:30

26-Апр-18

Российские фильмы до 2016 ·· Я худею (Алексей Нужный) [2018, комедия, WEB-DLRip] Galfimbul 15640555521.46 GB 0 0 1524713056

06:24

26-Апр-18

Российские фильмы 2016-2018 (Новинки русского кино) ·· Я худею (Алексей Нужный) [2018 г., Комедия, WEB-DLRip] iTunes Galfimbul 14684610561.37 GB 0 0 1524688329

23:32

25-Апр-18

Российские фильмы 2016-2018 (Новинки русского кино) ·· Я худею (Алексей Нужный) [2018 г., Комедия, WEB-DL 1080p] iTunes Galfimbul 36880322023.43 GB 3 0 1524688317

23:31

25-Апр-18

Документальные фильмы и телепередачи ·· Профессия - репортер. Я худею, дорогая редакция! Эфир от 14.07.2012 [2012, Документальный, SATRip] Galfimbul 295200756282 MB 0 0 1497053773

03:16

10-Июн-17

Еще никто не оставлял запись к записи скачать торрент Я худею . Будь первым!

!Обратная связь