Tsui no Sumika | Robert Griffin | House Interior Garden

Скачать через торрент Белая коробка Shirobako бесплатно Аниме Все серии на русском torrent

Статистика раздачи
Размер:  21.12 GB   |    Зарегистрирован:  4 дня   |    .torrent скачан:  24 раза   |   
Раздают:  1  
   
загрузка...
 
Автор Сообщение

Galfimbul

avatar Galfimbul



Год выпуска: 2014 | Страна: Япония
Жанр: комедия, повседневность
Продолжительность: тв-сериал, 24 эп. по 25 мин; спешлы, 2 эп. по 25 мин.
Перевод: субтитры от Rise, Tousaka Jun, Субтитродел-без-головы [TV]
<div class="post-box-default">
<div class="post-box">
▪ S1: субтитры от LookerA
▪ S2: субтитры от Elven_tankman, Nachtwandler, Buka63

+ English subtitles by LNS (TV+S1), MaverickSubs (S2)
</div>
</div>
Озвучка:
▪ одноголосая жен от Miori (CactusTeam) [TV]
▪ двухголосая муж/жен от Sad_Kit & Milirina (Anything Group)
Режиссер: Цутому Мидзусима

Студия:
Описание: Аой Миямори никогда не забудет школьный клуб анимации, но главное — то сияющее чувство радости, переполняющее её в дни последнего культурного фестиваля накануне выпуска из старшей школы. Чувство трепета перед демонстрацией своей работы зевающей публике, и чувство выполненного долга — после. Гордость за себя и своих одноклубников. Мечты о том, чтобы стремительным рывком ворваться в аниме-индустрию большого города и вместе, впятером, после счастливой встречи создать что-то стоящее усилий.
Но мечты мечтами, а реальность берёт своё. Два года спустя Аой работает ассистентом продюсера в небольшой анимационной студии, выполняя рутинную и лишённую удовольствия работу. С момента выпуска энтузиазм девушки несколько поубавился, однако, несмотря на жёсткий график и трудовую суету, она всё ещё надеется выполнить обещание, которое они с одноклубниками Эмой, Мидори, Мисой и Шизукой дали когда-то друг другу.
Создать грандиозное аниме сложно, но если заручиться поддержкой настоящих друзей — даже такая нелёгкая задача станет пустяковой затеей!
AniDB World Art MAL
Качество: BDRip | Рип: LittleBakas!
Тип релиза: без хардсаба, без линковки
Формат видео: MKV
Видео: x265, 10 bit, 1920x1080, 23.976fps, 3400 Kbps
Аудио JAP: FLAC, 48.0 kHz, 2.0 ch, 590 Kbps
Аудио RUS (ext) 1-2: AC3, 48.0 kHz, 2.0 ch, 190 Kbps
GeneralUnique ID : 111432988363772108577238239749039834273 (0x53D53681276F6AF8E3812005CCC9C4A1)Complete name : q:\[LittleBakas] Shirobako (2014) [BD 1920x1080 HEVC FLAC]\[LittleBakas] Shirobako (2014) 08 [BD 1920x1080 HEVC FLAC].mkvFormat : MatroskaFormat version : Version 4 / Version 2File size : 702 MiBDuration : 24 min 41 sOverall bit rate mode : VariableOverall bit rate : 3 978 kb/sMovie name : EP08 «I`m Not Criticizing You or Anything»Encoded date : UTC 2018-07-06 09:04:47Writing application : mkvmerge v24.0.0 ('Beyond The Pale') 64-bitWriting library : libebml v1.3.6 + libmatroska v1.4.9

VideoID : 1Format : HEVCFormat/Info : High Efficiency Video CodingFormat profile : @[email protected] ID : V_MPEGH/ISO/HEVCDuration : 24 min 41 sBit rate : 3 387 kb/sWidth : 1 920 pixelsHeight : 1 080 pixelsDisplay aspect ratio : 16:9Frame rate mode : ConstantFrame rate : 23.976 (24000/1001) FPSColor space : YUVChroma subsampling : 4:4:4Bit depth : 10 bitsBits/(Pixel*Frame) : 0.068Stream size : 598 MiB (85%)Title : BDRip by LittleBakasWriting library : x265 2.7+1-2aa737a99f51:[Windows][MSVC 1900][64 bit] 10bitEncoding settings : cpuid=1173503 / frame-threads=3 / numa-pools=12 / wpp / no-pmode / no-pme / no-psnr / ssim / log-level=2 / csv / csv-log-level=2 / input-csp=3 / input-res=1920x1080 / interlace=0 / total-frames=0 / level-idc=0 / high-tier=1 / uhd-bd=0 / ref=4 / no-allow-non-conformance / no-repeat-headers / annexb / no-aud / no-hrd / info / hash=0 / no-temporal-layers / no-open-gop / min-keyint=1 / keyint=720 / gop-lookahead=0 / bframes=8 / b-adapt=2 / b-pyramid / bframe-bias=0 / rc-lookahead=60 / lookahead-slices=1 / scenecut=40 / radl=0 / no-intra-refresh / ctu=32 / min-cu-size=8 / rect / no-amp / max-tu-size=32 / tu-inter-depth=2 / tu-intra-depth=2 / limit-tu=4 / rdoq-level=2 / dynamic-rd=0.00 / ssim-rd / signhide / no-tskip / nr-intra=0 / nr-inter=0 / no-constrained-intra / no-strong-intra-smoothing / max-merge=3 / limit-refs=2 / limit-modes / me=3 / subme=3 / merange=52 / temporal-mvp / weightp / weightb / no-analyze-src-pics / deblock=0:0 / no-sao / no-sao-non-deblock / rd=4 / no-early-skip / rskip / no-fast-intra / no-tskip-fast / no-cu-lossless / b-intra / no-splitrd-skip / rdpenalty=2 / psy-rd=1.00 / psy-rdoq=0.00 / no-rd-refine / no-lossless / cbqpoffs=2 / crqpoffs=2 / rc=crf / crf=15.0 / qcomp=0.75 / qpstep=1 / stats-write=0 / stats-read=0 / ipratio=1.20 / pbratio=1.00 / aq-mode=1 / aq-strength=0.80 / cutree / zone-count=0 / no-strict-cbr / qg-size=8 / no-rc-grain / qpmax=69 / qpmin=0 / no-const-vbv / sar=0 / overscan=0 / videoformat=5 / range=0 / colorprim=1 / transfer=1 / colormatrix=1 / chromaloc=0 / display-window=0 / max-cll=0,0 / min-luma=0 / max-luma=1023 / log2-max-poc-lsb=8 / vui-timing-info / vui-hrd-info / slices=1 / no-opt-qp-pps / no-opt-ref-list-length-pps / no-multi-pass-opt-rps / scenecut-bias=0.05 / no-opt-cu-delta-qp / no-aq-motion / no-hdr / no-hdr-opt / no-dhdr10-opt / analysis-reuse-level=5 / scale-factor=0 / refine-intra=0 / refine-inter=0 / refine-mv=0 / no-limit-sao / ctu-info=0 / no-lowpass-dct / refine-mv-type=0 / copy-pic=1Language : JapaneseDefault : YesForced : NoColor range : LimitedColor primaries : BT.709Transfer characteristics : BT.709Matrix coefficients : BT.709

AudioID : 2Format : FLACFormat/Info : Free Lossless Audio CodecCodec ID : A_FLACDuration : 24 min 41 sBit rate mode : VariableBit rate : 589 kb/sChannel(s) : 2 channelsChannel positions : Front: L RSampling rate : 48.0 kHzFrame rate : 11.719 FPS (4096 SPF)Bit depth : 16 bitsStream size : 104 MiB (15%)Title : LPCM->FLACWriting library : libFLAC 1.3.2 (UTC 2017-01-01)Language : JapaneseDefault : YesForced : No

Menu00:00:00.000 : en:Avant00:00:30.030 : en:Opening00:02:00.037 : en:A Part00:13:12.041 : en:B Part00:23:00.004 : en:Ending00:24:30.052 : en:Next
...5144799
Вес меньше на ≥35%, качество ≥"с незначительной потерей" (с незначительной потерей/равное/лучше — нужное подчеркнуть).
http://slowpics.org/comparison/f2145f49-23d9-472a-9e3d-2aea533af041
...5124709
1080p
...4973797
...4844855
...4977406
...4844973
BDRip
1 Exodus to Tomorrow!
2 Arupin Is Here!
3 No More Recap Episodes
4 I Totally Messed Up
5 Those Who Blame Others Should Just Quit!
6 Idepon Miyamori: On the Move
7 Retake with Cats
8 I`m Not Criticizing You or Anything
9 What Do You Think I Was Trying to Say?
10 Just One More
11 The Little Key Frames Girl
12 Exodus Christmas
13 What Kind of Cloud Do You Like?
14 The Ruthless Audition Meeting!
15 Will These Drawings Work?
16 Table Flip
17 Where Am I?
18 You Tricked Me!
19 Did You Catch Any?
20 I`ll Do My Best, Mustang!
21 Don`t Hold the Quality Hostage
22 Noa`s in Her Underwear.
23 Table Flip Continued
24 The Delivery That Was Too Far Off
S1 Exodus! Episode 1
S2 Third Aerial Girls Squad: File 01 - Falling Angel


Трекер:  [ 13-Июл-2018 06:01 ]

  

Скачать .torrent

Размер .torrent файла 240 KB


Размер: 21.12 GB
Хэш (hash) релиза: bc92706bce70d2ed4bbab4b6b35d4e733edaee31
Подписка на обновления:

Торренты, похожие на Белая коробка Shirobako скачать торрент

Форум Название Автор Размер S L Добавлен
Аниме | HD Rips ·%· Белая Коробка / Shirobako / Белый Ящик [TV] [24+2 из 24+2] [Без хардсаба] [RUS(int), JAP+SUB] [2014, комедия, HDTVRip] [720p] Galfimbul 92849551338.65 GB 0 0 1531164608

22:30

9-Июл-18

Аниме | HD Rips ·· Белая Коробка / Shirobako / Белый Ящик [TV] [01-18 из 24] [Без хардсаба] [RUS(int), JAP+SUB] [2014 г., комедия, HDTVRip] [720p] Galfimbul 59075754925.5 GB 0 0 1475551595

06:26

4-Окт-16

Аниме | HD Rips ·· Белая Коробка / Shirobako / Белый Ящик [TV] [01-24 из 24] [Без хардсаба] [RUS(int), JAP] [2014 г., комедия, HDTVRip] [720p] Galfimbul 81320913197.57 GB 0 0 1469379218

19:53

24-Июл-16

Аниме | HD Rips ·· Белая Коробка / Shirobako / Белый Ящик [TV] [01-24 из 24] [Без хардсаба] [RUS(int), JAP] [2014 г., комедия, HDTVRip] [720p] Galfimbul 81970859847.63 GB 0 0 1469359707

14:28

24-Июл-16

Аниме | HD Rips ·· Белая Коробка / Shirobako / Белый Ящик [TV] [01-22 из 24] [Без хардсаба] [RUS(int), JAP] [2014 г., комедия, HDTVRip] [720p] Galfimbul 73674409966.86 GB 0 0 1468779458

21:17

17-Июл-16

Аниме | HD Rips ·· Белая Коробка / Shirobako / Белый Ящик [TV] [01-20 из 24] [Без хардсаба] [RUS(int), JAP] [2014 г., комедия, HDTVRip] [720p] Galfimbul 66645989766.21 GB 0 0 1468177053

21:57

10-Июл-16

Аниме | HD Rips ·· Белая Коробка / Shirobako / Белый Ящик [TV] [01-17 из 24] [Без хардсаба] [RUS(int), JAP+SUB] [2014 г., комедия, HDTVRip] [720p] Galfimbul 55829601125.2 GB 0 0 1461877443

00:04

29-Апр-16

Аниме | Rips ·· Белая Коробка / Shirobako / Белый Ящик / Аниме от А до Я [TV] [24 из 24] [Без хардсаба] [JAP+SUB] [2014 г., комедия, BDRip] Galfimbul 44761136054.17 GB 0 0 1452547151

00:19

12-Янв-16

Аниме | HD Rips ·· Белая Коробка / Shirobako / Белый Ящик / Аниме от А до Я [TV] [1-12 из 24] [Без хардсаба] [JAP+SUB] [2014 г., комедия, BDRemux] [1080p] Galfimbul 6918213264864.43 GB 0 0 1428106356

03:12

4-Апр-15

Аниме | HD Rips ·· Белая Коробка / Shirobako / Белый Ящик [TV] [1 из 12] [Без хардсаба] [RUS(int), JAP, SUB] [2014 г., комедия, HDTVRip] [720p] Galfimbul 365330595348 MB 0 0 1413229010

22:36

13-Окт-14

Аниме | HD Rips ·· Белая коробка / Shirobako (Мидзусима Цутому) [TV+Special] [Без хардсаба] [24+2 из 24+2] [JAP+SUB] & [24+0 из 24+2] [RUS (ext)] [2014 г., комедия, повседневность, BDRip] [1080p] Galfimbul 4283717972939.9 GB 0 0 1469698062

12:27

28-Июл-16

Аниме | HD Rips ·· Белая коробка / Shirobako (Мидзусима Цутому) [TV+Special] [24+2 из 24+2] [Без хардсаба] [JAP+SUB] [2015 г., комедия, повседневность, BDRip] [1080p] Galfimbul 4213546658339.24 GB 0 0 1452002174

16:56

5-Янв-16

Аниме | HD Rips ·· Белая коробка / Shirobako [TV+Special] [24+2 из 24+2] [Без хардсаба] [JAP+SUB] [2014 г., комедия, повседневность, BDRip] [720p] Galfimbul 98457044049.17 GB 0 0 1448854121

06:28

30-Ноя-15

Аниме | HD Rips ·· Белая коробка / Shirobako [Special] [1 из 2] [Без хардсаба] [JAP, SUB] [2015 г., комедия, драма, BDRip] [720p] Galfimbul 412425917393 MB 0 0 1426378472

03:14

15-Мар-15

Аниме | HD Rips ·· Белая Коробка / Shirobako (Мидзусима Цутому) [TV] [1 из 12] [Без хардсаба] [JAP+SUB] [2014 г., комедия, WEBRip] [1080p] Galfimbul 593515820566 MB 0 0 1413247000

03:36

14-Окт-14

Еще никто не оставлял запись к записи скачать торрент Белая коробка Shirobako . Будь первым!

!Обратная связь