Click Here to Login | Chanson douce | billboard 2018

Скачать через торрент Горький рис Riso amaro Фильм бесплатно в хорошем качестве torrent

Скачивайте на UnionPeer.org фильмы через торрент без регистрации. Новинки кино в хорошем качестве через торрент. На UnionPeer.org можно скачать через торрент фильмы 2014 и 2015 годов. Самые новые фильмы.

Скачать торрент Горький рис Riso amaro бесплатно через .torrent фильм мультфильм сериал

Статистика раздачи
Размер:  27.56 GB   |    Зарегистрирован:  6 дней   |    .torrent скачан:  30 раз   |   
Раздают:  1  
   
загрузка...
 
Автор Сообщение

Galfimbul

avatar Galfimbul


Горький рис / Riso amaro / Bitter rice

Страна: Италия
Студия: Lux Film S.p.a.
Жанр: драма
Год выпуска: 1949
Продолжительность: 01:49:09

Перевод 1: Профессиональный (дублированный) - киностудия имени Горького
Перевод 2: Авторский (одноголосый закадровый) - Роман Янкелевич
Перевод 3: Одноголосый закадровый - Urasiko
Субтитры: русские (выборочные - Urasiko), русские (Urasiko), английские, итальянские
Оригинальная аудиодорожка: итальянский

Режиссер: Джузеппе Де Сантис / Giuseppe De Santis

В ролях: Витторио Гассман, Дорис Даулинг, Сильвана Мангано, Раф Валлоне, Кекко Риззоне, Нико Пепе, Адриана Сивьери, Лия Корелли, Мария Грация Франчия, Деди Ристори, Анна Маэстри, Мариэмма Барди, Мария Капуццо, Исабелла Маринкола, Карло Маццарелла, Эрманно Ранди, Антонио Недиани, Мариано Энглен, Аттилио Доттезио, Манлио Манноцци

Роли дублировали: Николай Орлов, Нина Зорская, Инна Выходцева, Виктор Рождественский

Описание: Фильм рассказывает о молодой женщине и ее связи с двумя мужчинами. Франческа и Вальтер - преступники из Северной Италии. Чтобы избежать ареста, Франческа присоединяется к группе крестьян, собирающих рис. Вальтер следует за ней в рисовые районы, и вскоре вовлекает крестьян, а также Сильвану, пропольщицу риса, в сложный заговор, включающий грабеж, любовь и даже убийство.

Доп. информация: Найденный в сети блюр, содержащий итальянский оригинал и английские субтитры, преобразован в ремукс, в него добавлены синхронизированный xfiles дубляж из раздачи - ...5447939, синхронизированная Нордером одноголоска из раздачи - ...3448456, синхронизированная Нордером одноголоска из раздачи - ...3882340, русские субтитры из раздачи - ...5157049 и синхронизированные sovsem-neduhoven итальянские субтитры из раздачи - ...3449080. Оригинальный PCM-звук упакован во FLAC программой eac3to.

Вставки оригинальной дороги в дубляж: 00:24:44-00:24:48, 00:29:57-00:30:16, 00:32:59-00:33:28, 00:35:29-00:38:06, 00:41:09-00:41:15, 00:44:53-00:45:00, 00:57:16-00:57:49, 01:00:49-01:01:49, 01:04:51-01:05:22, 01:05:55-01:06:03, 01:28:48-01:28:58, 01:33:02-01:34:17

Сэмпл: http://cloud.mail.ru/public/7Nte/CwfGwXvhE

Тип релиза: BDRemux 1080p
Контейнер: MKV

Видео: 34989 Кбит/сек, AVC 1920*1080 (16:9), в 23,976 кадра/сек, CABAC
Аудио 1: Русский, 192 Кбит/сек, 48,0 КГц, 16 бит, 1 канал, AC-3 - киностудия имени Горького
Аудио 2: Русский, 192 Кбит/сек, 48,0 КГц, 16 бит, 2 канала, AC-3 - Янкелевич
Аудио 3: Русский, 192 Кбит/сек, 48,0 КГц, 16 бит, 2 канала, AC-3 - Urasiko
Аудио 4: Итальянский, 583 Кбит/сек, 48,0 КГц, 24 бит, 1 канал, FLAC
Формат субтитров: softsub (SRT)
ОбщееУникальный идентификатор : 8189844948137285843967580991923926470 (0x6294E87FD9284EF1E51BC8D7A77B5C6)Полное имя : G:\MONAR\Художественные фильмы\Зарубежное кино\Горький рис (1949) BDRemux 1080p.mkvФормат : MatroskaВерсия формата : Version 4 / Version 2Размер файла : 27,6 ГбайтПродолжительность : 1 ч. 49 м.Режим общего битрейта : ПеременныйОбщий поток : 36,1 Мбит/секНазвание фильма : Riso amaro (1949)Дата кодирования : UTC 2018-07-12 17:28:48Программа кодирования : mkvmerge v24.0.0 ('Beyond The Pale') 64-bitБиблиотека кодирования : libebml v1.3.6 + libmatroska v1.4.9

ВидеоИдентификатор : 1Формат : AVCФормат/Информация : Advanced Video CodecПрофиль формата : [email protected]Настройки формата : CABAC / 4 Ref FramesПараметр CABAC формата : ДаПараметр RefFrames формата : 4 кадраИдентификатор кодека : V_MPEG4/ISO/AVCПродолжительность : 1 ч. 49 м.Вид битрейта : ПеременныйБитрейт : 35,0 Мбит/секМаксимальный битрейт : 37,0 Мбит/секШирина : 1920 пикселейВысота : 1080 пикселейСоотношение сторон : 16:9Режим частоты кадров : ПостоянныйЧастота кадров : 23,976 (24000/1001) кадра/секЦветовое пространство : YUVСубдискретизация насыщенности : 4:2:0Битовая глубина : 8 битТип развёртки : ПрогрессивнаяБит/(Пиксели*Кадры) : 0.704Размер потока : 26,7 Гбайт (97%)Язык : ItalianDefault : ДаForced : Нет

Аудио #1Идентификатор : 2Формат : AC-3Формат/Информация : Audio Coding 3Идентификатор кодека : A_AC3Продолжительность : 1 ч. 49 м.Вид битрейта : ПостоянныйБитрейт : 192 Кбит/секКаналы : 1 каналРасположение каналов : Front: CЧастота : 48,0 КГцЧастота кадров : 31,250 кадров/сек (1536 SPF)Битовая глубина : 16 битМетод сжатия : С потерямиРазмер потока : 150 Мбайт (1%)Заголовок : DubЯзык : RussianServiceKind/String : Complete MainDefault : ДаForced : Нет

Аудио #2Идентификатор : 3Формат : AC-3Формат/Информация : Audio Coding 3Идентификатор кодека : A_AC3Продолжительность : 1 ч. 49 м.Вид битрейта : ПостоянныйБитрейт : 192 Кбит/секКаналы : 2 каналаРасположение каналов : Front: L RЧастота : 48,0 КГцЧастота кадров : 31,250 кадров/сек (1536 SPF)Битовая глубина : 16 битМетод сжатия : С потерямиРазмер потока : 150 Мбайт (1%)Заголовок : AVOЯзык : RussianServiceKind/String : Complete MainDefault : НетForced : Нет

Аудио #3Идентификатор : 4Формат : AC-3Формат/Информация : Audio Coding 3Идентификатор кодека : A_AC3Продолжительность : 1 ч. 49 м.Вид битрейта : ПостоянныйБитрейт : 192 Кбит/секКаналы : 2 каналаРасположение каналов : Front: L RЧастота : 48,0 КГцЧастота кадров : 31,250 кадров/сек (1536 SPF)Битовая глубина : 16 битМетод сжатия : С потерямиРазмер потока : 150 Мбайт (1%)Заголовок : VOЯзык : RussianServiceKind/String : Complete MainDefault : НетForced : Нет

Аудио #4Идентификатор : 5Формат : FLACФормат/Информация : Free Lossless Audio CodecИдентификатор кодека : A_FLACПродолжительность : 1 ч. 49 м.Вид битрейта : ПеременныйБитрейт : 583 Кбит/секКаналы : 1 каналЧастота : 48,0 КГцЧастота кадров : 11,719 кадров/сек (4096 SPF)Битовая глубина : 24 битРазмер потока : 455 Мбайт (2%)Заголовок : originalБиблиотека кодирования : libFLAC 1.2.1 (UTC 2007-09-17)Язык : ItalianDefault : НетForced : Нет

Текст #1Идентификатор : 6Формат : UTF-8Идентификатор кодека : S_TEXT/UTF8Идентификатор кодека/Информация : UTF-8 Plain TextПродолжительность : 1 ч. 9 м.Битрейт : 9 бит/секElementCount : 73Размер потока : 4,65 Кбайт (0%)Заголовок : srtЯзык : RussianDefault : ДаForced : Нет

Текст #2Идентификатор : 7Формат : UTF-8Идентификатор кодека : S_TEXT/UTF8Идентификатор кодека/Информация : UTF-8 Plain TextПродолжительность : 1 ч. 48 м.Битрейт : 83 бит/секElementCount : 978Размер потока : 66,3 Кбайт (0%)Заголовок : srtЯзык : RussianDefault : НетForced : Нет

Текст #3Идентификатор : 8Формат : UTF-8Идентификатор кодека : S_TEXT/UTF8Идентификатор кодека/Информация : UTF-8 Plain TextПродолжительность : 1 ч. 48 м.Битрейт : 54 бит/секElementCount : 1279Размер потока : 43,1 Кбайт (0%)Заголовок : srtЯзык : EnglishDefault : НетForced : Нет

Текст #4Идентификатор : 9Формат : UTF-8Идентификатор кодека : S_TEXT/UTF8Идентификатор кодека/Информация : UTF-8 Plain TextПродолжительность : 1 ч. 47 м.Битрейт : 53 бит/секElementCount : 964Размер потока : 42,3 Кбайт (0%)Заголовок : srtЯзык : ItalianDefault : НетForced : Нет

Меню00:00:00.000 : en:Opening credits00:01:51.695 : en:"This is Radio Turin"00:05:19.861 : en:Boogie-woogie onto the train00:08:39.936 : en:Silvana00:12:34.504 : en:Arrival at the barracks00:17:47.858 : en:"No contract, no job"00:20:08.207 : en:"Work twice as hard"00:23:42.004 : en:The main scab00:30:33.957 : en:Marco, Silvana, and Francesca00:34:10.048 : en:A night in the barracks00:39:36.708 : en:The men arrive00:46:59.692 : en:Dance party in the woods00:54:03.198 : en:A bigger job01:00:39.845 : en:Bathing in the river01:04:42.295 : en:Rainy days01:12:49.240 : en:Disaster in the rain01:17:51.417 : en:A gift01:22:25.858 : en:"Do you ever wear a mask"01:28:12.537 : en:Miss Rice Worker 194801:33:02.952 : en:Saving the crop01:35:21.132 : en:"Aim carefully"01:40:06.667 : en:Foiled plots01:42:58.547 : en:"What's she going to do?"
12.07.18 Торрент-файл перезалит. Вторая дорога переделана. Добавлены субтитры на недостающие места. Сэмпл и отчёт перезалиты.

Трекер:  [ 13-Июл-2018 03:01 ]

  

Скачать .torrent

Размер .torrent файла 35 KB


Размер: 27.56 GB
Хэш (hash) релиза: fdef9b4e18f37d5f06dfe2b78694c7fec216eca7
Подписка на обновления:

Еще никто не оставлял запись к записи скачать торрент Горький рис Riso amaro . Будь первым!

!Обратная связь