Великолепный век / Muhtesem Yuzyil | all videos | Register

Скачать через торрент Героический дуэт Героическое трио Фильм бесплатно в хорошем качестве torrent

Скачивайте на UnionPeer.org фильмы через торрент без регистрации. Новинки кино в хорошем качестве через торрент. На UnionPeer.org можно скачать через торрент фильмы 2014 и 2015 годов. Самые новые фильмы.

Скачать торрент Героический дуэт Героическое трио бесплатно через .torrent фильм мультфильм сериал

Статистика раздачи
Размер:  1.47 GB   |    Зарегистрирован:  3 дня   |    .torrent скачан:  18 раз   |   
Раздают:  1  
   
загрузка...
 
Автор Сообщение

Galfimbul

avatar Galfimbul


Героический дуэт / Героическое трио / Heroic Du / Shuang xiong

Страна: Гонконг
Жанр: триллер, детектив
Год выпуска: 2003
Продолжительность: 01:40:46

Перевод: Авторский (одноголосый закадровый) Антон Алексеев
Субтитры: нет
Режиссер: Бенни Чан / Benny Chan

В ролях: Леон Лай, Экин Чэн, Френсис Нг, Карена Лам, Цзинлэй Сю, Энсон Люн, Рико Квок, Рэймонд Вон, Сэмюэл Пан

Описание: Полицейский детектив Кен сталкивается с необычным делом — его коллега и друг пробрался ночью в участок и поджег сейф с важными уликами, а следом за этим на допросе застрелился. Многое указывает на то, что несчастный пошел на преступление не по своей воле, а под воздействием гипноза, и чтобы пролить свет на ситуацию, Кен обращается за помощью к опытному гипнотизеру Джеку Лаю, который в данный момент находится в тюрьме...

Сэмпл: http://multi-up.com/1203620

Качество видео: DVDRip (Исходник - DVD9 / KinoZal))
Формат видео: AVI

Видео: XviD 73, 704x304, (2,35:1), 23,976 fps, 1634 Кбит/с, 8 бит, 0.31 bit/pixel
Аудио: Русский (АС3, 6 ch (Front: L C R, Side: L R, LFE), 48,0 KHz, 384 Kbps)
ОбщееПолное имя : H:\Фильмы на трекер\Героический дуэт (триллер, детектив 2003 год).aviФормат : AVIФормат/Информация : Audio Video InterleaveРазмер файла : 1,47 ГбайтПродолжительность : 1 ч. 40 м.Общий поток : 2093 Кбит/секПрограмма кодирования : VirtualDubMod 1.5.10.2 (build 2540/release)Библиотека кодирования : VirtualDubMod build 2540/release

ВидеоИдентификатор : 0Формат : MPEG-4 VisualПрофиль формата : Advanced [email protected]Параметр BVOP формата : 2Параметр QPel формата : НетПараметр GMC формата : Без точки переходаПараметр матрицы формата : ВыборочнаяИдентификатор кодека : XVIDИдентификатор кодека/Подсказка : XviDПродолжительность : 1 ч. 40 м.Битрейт : 1636 Кбит/секШирина : 704 пикселяВысота : 304 пикселяСоотношение сторон : 2,35:1Частота кадров : 23,976 (24000/1001) кадра/секЦветовое пространство : YUVСубдискретизация насыщенности : 4:2:0Битовая глубина : 8 битТип развёртки : ПрогрессивнаяМетод сжатия : С потерямиБит/(Пиксели*Кадры) : 0.319Размер потока : 1,15 Гбайт (78%)Библиотека кодирования : XviD 73

АудиоИдентификатор : 1Формат : AC-3Формат/Информация : Audio Coding 3Расширение режима : CM (complete main)Параметр Endianness формата : BigИдентификатор кодека : 2000Продолжительность : 1 ч. 40 м.Вид битрейта : ПостоянныйБитрейт : 448 Кбит/секКаналы : 6 каналовРасположение каналов : Front: L C R, Side: L R, LFEЧастота : 48,0 КГцЧастота кадров : 31,250 кадров/сек (1536 spf)Метод сжатия : С потерямиРазмер потока : 323 Мбайт (21%)Выравнивание : Разделение по промежуткамПродолжительность промежутка : 42 мс. (1,00 видеокадр)Время предзагрузки промежутка : 500 мс.


Трекер:  [ 12-Июл-2018 18:01 ]

  

Скачать .torrent

Размер .torrent файла 15 KB


Размер: 1.47 GB
Хэш (hash) релиза: f878ad29b669cfb21067af52c9f16d525d541a7c
Подписка на обновления:

Еще никто не оставлял запись к записи скачать торрент Героический дуэт Героическое трио . Будь первым!

!Обратная связь