Seisen Cerberus: Ryuukoku no Fatalite | Agathe kann’s nicht lassen | Immunity Challenge: Jacqui Challinor

Скачать через торрент Тихое место A Quiet Place Фильм бесплатно в хорошем качестве torrent

Скачивайте на UnionPeer.org фильмы через торрент без регистрации. Новинки кино в хорошем качестве через торрент. На UnionPeer.org можно скачать через торрент фильмы 2014 и 2015 годов. Самые новые фильмы.

Скачать торрент Тихое место A Quiet Place бесплатно через .torrent фильм мультфильм сериал

Статистика раздачи
Размер:  11.45 GB   |    Зарегистрирован:  4 дня   |    .torrent скачан:  47 раз   |   
Раздают:  3  
   
загрузка...
 
Автор Сообщение

Galfimbul

avatar Galfimbul


Тихое место /A Quiet Place

Год выхода: 2018
Жанр: Ужасы, фантастика, триллер, драма, [url=/tag/1/][/url]
Режиссер: Джон Красински
В ролях: Эмили Блант, Джон Красински, Милли Симмондс, Ноа Джуп, Кейд Вудворд, Леон Рассом, Дорис МакКарти, Рода Пелл.

О фильме:
Семья с двумя детьми живёт на отдалённой ферме. Казалось бы, жизнь этих людей совершенно не отличается от жизни других таких семей, но они живут в месте, которое наполнено ужасными монстрами, реагирующими на любой звук. Семейство разучило целый комплекс специальных жестов, которые помогают им общаться друг с другом, не издавая ни единого звука. Кроме того, каждый из членов семьи должен очень тихо передвигаться, чтобы опасные существа их не услышали. Однако дом, где живут дети, не может быть самым тихим местом на земле.



Страна: США
Продолжительность: 01:30:15
Перевод: Дублированный, русский (iTunes) + Профессиональный многоголосый, русский (HDRezka)

Файл
Кодек: AVC
Качество: BDRip 1080p
Видео: 1920x800, 16800 Кбит/сек, 23.976 fps
Звук:
Аудио #1: Русский (AC3, 48 KHz, 6 ch, 384 kbps) | Дублированный (iTunes)
Аудио #2: Русский (AC3, 48 KHz, 6 ch, 384 kbps) | Профессиональный многоголосый (HDRezka)
Аудио #3: Английский (AC3, 48 KHz, 6 ch, 640 kbps) | Original
Субтитры: Русские (Forced, Full), Английские (Forced, Full, SDH)
.x264 iNFO:
--crf 16.7 --preset veryslow --me umh --subme 11 --bframes 9 --deblock -3:-3 --ipratio 1.30 --pbratio 1.20
--psy-rd 1.0 --qcomp 0.60 --aq-strength 0.85 --merange 32 --no-fast-pskip --no-mbtree --no-dct-decimate

.x264 LOG:
x264 [info]: frame I:760 Avg QP:12.86 size:242173
x264 [info]: frame P:24771 Avg QP:14.60 size:126077
x264 [info]: frame B:104297 Avg QP:15.89 size: 77025
x264 [info]: consecutive B-frames: 1.3% 1.2% 6.4% 7.3% 12.8% 55.9% 6.6% 4.2% 2.7% 1.7%
Полное имя : A.Quiet.Place.2018.BDRip.1080p.mkv
Формат : Matroska
Версия формата : Version 4 / Version 2
Размер файла : 11,5 Гбайт
Продолжительность : 1 ч. 30 м.
Общий поток : 18,2 Мбит/сек
Название фильма : -=Rensler=-
Дата кодирования : UTC 2018-07-12 06:31:21
Программа кодирования : mkvmerge v8.3.0 ('Over the Horizon') 64bit
Библиотека кодирования : libebml v1.3.1 + libmatroska v1.4.2
Обложка : Yes
Attachments : Cover.png

Видео
Идентификатор : 1
Формат : AVC
Формат/Информация : Advanced Video Codec
Профиль формата : [email protected]
Настройки формата : CABAC / 5 Ref Frames
Параметр CABAC формата : Да
Параметр RefFrames формата : 5 кадров
Идентификатор кодека : V_MPEG4/ISO/AVC
Продолжительность : 1 ч. 30 м.
Битрейт : 16,8 Мбит/сек
Ширина : 1920 пикселей
Высота : 800 пикселей
Соотношение сторон : 2,40:1
Режим частоты кадров : Постоянный
Частота кадров : 23,976 (24000/1001) кадра/сек
Цветовое пространство : YUV
Субдискретизация насыщенности : 4:2:0
Битовая глубина : 8 бит
Тип развёртки : Прогрессивная
Бит/(Пиксели*Кадры) : 0.455
Размер потока : 10,6 Гбайт (92%)
Заголовок : HDEncode TayTO
Библиотека кодирования : x264 core 155 r2867+82 a249126 t_mod_Custom_2 [[email protected] X86_64]
Настройки программы : cabac=1 / ref=5 / deblock=1:-3:-3 / analyse=0x3:0x133 / me=umh / subme=11 / psy=1 / fade_compensate=0.00 / psy_rd=1.00:0.00 / mixed_ref=1 / me_range=32 / chroma_me=1 / trellis=2 / 8x8dct=1 / cqm=0 / deadzone=21,11 / fast_pskip=0 / chroma_qp_offset=-2 / threads=12 / lookahead_threads=2 / sliced_threads=0 / nr=0 / decimate=0 / interlaced=0 / bluray_compat=0 / constrained_intra=0 / fgo=0 / bframes=9 / b_pyramid=2 / b_adapt=2 / b_bias=0 / direct=3 / weightb=1 / open_gop=0 / weightp=2 / keyint=250 / keyint_min=23 / scenecut=40 / intra_refresh=0 / rc_lookahead=60 / rc=crf / mbtree=0 / crf=16.7000 / qcomp=0.60 / qpmin=0:0:0 / qpmax=69:69:69 / qpstep=4 / vbv_maxrate=62500 / vbv_bufsize=78125 / crf_max=0.0 / nal_hrd=none / filler=0 / ip_ratio=1.30 / pb_ratio=1.20 / aq=3:0.85 / aq-sensitivity=10.00 / aq-factor=1.00:1.00:1.00 / aq2=0 / aq3=0 / zones=490,520,crf=13/23680,23839,crf=13.8/23975,24155,crf=13.8/63875,64780,crf=14.8/68720,70000,crf=14.8/70879,72092,crf=15.8/79226,79805,crf=15.8/91172,94834,crf=16.3/95328,95697,crf=15.8/102522,102702,crf=13.8/102703,103841,crf=14.8/108590,109505,crf=13.8
Язык : English
Default : Да
Forced : Нет
Цветовой диапазон : Limited
Коэффициенты матрицы : BT.709

Аудио #1
Идентификатор : 2
Формат : AC-3
Формат/Информация : Audio Coding 3
Идентификатор кодека : A_AC3
Продолжительность : 1 ч. 30 м.
Вид битрейта : Постоянный
Битрейт : 384 Кбит/сек
Каналы : 6 каналов
Расположение каналов : Front: L C R, Side: L R, LFE
Частота : 48,0 КГц
Частота кадров : 31,250 кадров/сек (1536 SPF)
Битовая глубина : 16 бит
Метод сжатия : С потерями
Размер потока : 248 Мбайт (2%)
Заголовок : iTunes «Pifagor»
Язык : Russian
ServiceKind : Complete Main
Default : Да
Forced : Нет

Аудио #2
Идентификатор : 3
Формат : AC-3
Формат/Информация : Audio Coding 3
Идентификатор кодека : A_AC3
Продолжительность : 1 ч. 30 м.
Вид битрейта : Постоянный
Битрейт : 384 Кбит/сек
Каналы : 6 каналов
Расположение каналов : Front: L C R, Side: L R, LFE
Частота : 48,0 КГц
Частота кадров : 31,250 кадров/сек (1536 SPF)
Битовая глубина : 16 бит
Метод сжатия : С потерями
Размер потока : 248 Мбайт (2%)
Заголовок : MVO «HDrezka Studio»
Язык : Russian
ServiceKind : Complete Main
Default : Нет
Forced : Нет

Аудио #3
Идентификатор : 4
Формат : AC-3
Формат/Информация : Audio Coding 3
Идентификатор кодека : A_AC3
Продолжительность : 1 ч. 30 м.
Вид битрейта : Постоянный
Битрейт : 640 Кбит/сек
Каналы : 6 каналов
Расположение каналов : Front: L C R, Side: L R, LFE
Частота : 48,0 КГц
Частота кадров : 31,250 кадров/сек (1536 SPF)
Битовая глубина : 16 бит
Метод сжатия : С потерями
Размер потока : 413 Мбайт (4%)
Заголовок : Original
Язык : English
ServiceKind : Complete Main
Default : Нет
Forced : Нет

Текст #1
Идентификатор : 5
Формат : UTF-8
Идентификатор кодека : S_TEXT/UTF8
Идентификатор кодека/Информация : UTF-8 Plain Text
Продолжительность : 1 ч. 19 м.
Битрейт : 6 бит/сек
ElementCount : 94
Размер потока : 3,68 Кбайт (0%)
Заголовок : Forced
Язык : Russian
Default : Да
Forced : Нет

Текст #2
Идентификатор : 6
Формат : UTF-8
Идентификатор кодека : S_TEXT/UTF8
Идентификатор кодека/Информация : UTF-8 Plain Text
Продолжительность : 1 ч. 19 м.
Битрейт : 9 бит/сек
ElementCount : 138
Размер потока : 5,41 Кбайт (0%)
Заголовок : Full
Язык : Russian
Default : Нет
Forced : Нет

Текст #3
Идентификатор : 7
Формат : UTF-8
Идентификатор кодека : S_TEXT/UTF8
Идентификатор кодека/Информация : UTF-8 Plain Text
Продолжительность : 1 ч. 11 м.
Битрейт : 3 бит/сек
ElementCount : 114
Размер потока : 1,87 Кбайт (0%)
Заголовок : Forced
Язык : English
Default : Нет
Forced : Нет

Текст #4
Идентификатор : 8
Формат : UTF-8
Идентификатор кодека : S_TEXT/UTF8
Идентификатор кодека/Информация : UTF-8 Plain Text
Продолжительность : 1 ч. 11 м.
Битрейт : 5 бит/сек
ElementCount : 165
Размер потока : 2,87 Кбайт (0%)
Заголовок : Full
Язык : English
Default : Нет
Forced : Нет

Текст #5
Идентификатор : 9
Формат : UTF-8
Идентификатор кодека : S_TEXT/UTF8
Идентификатор кодека/Информация : UTF-8 Plain Text
Продолжительность : 1 ч. 22 м.
Битрейт : 9 бит/сек
ElementCount : 340
Размер потока : 5,60 Кбайт (0%)
Заголовок : SDH
Язык : English
Default : Нет
Forced : Нет

Меню
00:00:00.000 : en:00:00:00.000
00:10:19.160 : en:00:10:19.160
00:14:38.044 : en:00:14:38.044
00:21:52.937 : en:00:21:52.937
00:25:09.717 : en:00:25:09.717
00:31:05.197 : en:00:31:05.197
00:36:23.431 : en:00:36:23.431
00:43:47.333 : en:00:43:47.333
00:47:42.735 : en:00:47:42.735
00:53:48.225 : en:00:53:48.225
01:00:31.461 : en:01:00:31.461
01:05:55.410 : en:01:05:55.410
01:10:57.879 : en:01:10:57.879
01:15:29.150 : en:01:15:29.150
01:23:47.314 : en:01:23:47.314
Релиз от: http://bluebird-hd.org/pic/group_blubird.png
Источник http://BlaTor.org

Трекер:  [ 12-Июл-2018 17:20 ]

  

Скачать .torrent

Размер .torrent файла 29 KB


Размер: 11.45 GB
Хэш (hash) релиза: 59c2089f0c780166165664034dd79650976a5ea4
Подписка на обновления:

Торренты, похожие на Тихое место A Quiet Place скачать торрент

Форум Название Автор Размер S L Добавлен
Зарубежные фильмы 2016-2018 (Новинки зарубежного кино) ·%· Тихое место / A Quiet Place (2018) BDRip-AVC от ExKinoRay | iTunes Galfimbul 782267938746 MB 0 0 1531681211

22:00

15-Июл-18

Зарубежные фильмы 2016-2018 (Новинки зарубежного кино) ·%· Тихое место / A Quiet Place (2018) BDRip-AVC от ExKinoRay | iTunes Galfimbul 782267938746 MB 1 1 1531677608

21:00

15-Июл-18

Зарубежные фильмы 2016-2018 (Новинки зарубежного кино) ·%· Тихое место / A Quiet Place (2018) BDRip от ExKinoRay | iTunes Galfimbul 15250322121.42 GB 2 0 1531513213

23:20

13-Июл-18

Зарубежные фильмы 2016-2018 (Новинки зарубежного кино) ·%· Тихое место / A Quiet place (2018) HDRip от Scarabey | iTunes Galfimbul 15076003841.4 GB 0 0 1531502407

20:20

13-Июл-18

Зарубежные фильмы 2016-2018 (Новинки зарубежного кино) ·%· Тихое место / A Quiet Place (2018) HDRip от Generalfilm | КПК | iTunes Galfimbul 356164075340 MB 0 0 1531465207

10:00

13-Июл-18

Зарубежные фильмы до 2016 ·%· Тихое место / A Quiet place (Джон Красински / John Krasinski) [2018, США, Ужасы, BDRemux 1080p] Dub (iTunes) + Sub (Rus, Eng) + Original Eng Galfimbul 2153243082420.05 GB 0 0 1531436482

02:01

13-Июл-18

Зарубежные фильмы 2016-2018 (Новинки зарубежного кино) ·%· Тихое место / A Quiet Place (2018) UHD Blu-ray Remux 2160p от ExKinoRay | HDR | Dolby Vision | iTunes Galfimbul 5674301276052.85 GB 0 0 1531422010

22:00

12-Июл-18

Зарубежные фильмы 2016-2018 (Новинки зарубежного кино) ·%· Тихое место / A Quiet Place (2018) BDRip-AVC от HELLYWOOD | iTunes Galfimbul 22965114772.14 GB 3 0 1531420837

21:40

12-Июл-18

Зарубежные фильмы 2016-2018 (Новинки зарубежного кино) ·%· Тихое место / A Quiet Place (2018) BDRip 1080p от qusi555 | iTunes Galfimbul 73266858586.82 GB 0 0 1531405236

17:20

12-Июл-18

Зарубежные фильмы 2016-2018 (Новинки зарубежного кино) ·%· Тихое место / A Quiet Place (2018) BDRip-AVC от HELLYWOOD | iTunes Galfimbul 15192527331.41 GB 3 2 1531402808

16:40

12-Июл-18

Зарубежные фильмы 2016-2018 (Новинки зарубежного кино) ·%· Тихое место / A Quiet Place (2018) BDRip 720p | iTunes Galfimbul 40721154623.79 GB 0 0 1531343411

00:10

12-Июл-18

Зарубежные фильмы 2016-2018 (Новинки зарубежного кино) ·%· Тихое место / A Quiet Place (2018) BDRip-AVC от OlLanDGroup | D, P | iTunes Galfimbul 17639446791.64 GB 0 0 1531338607

22:50

11-Июл-18

Зарубежные фильмы 2016-2018 (Новинки зарубежного кино) ·%· Тихое место / A Quiet Place (2018) BDRip от MegaPeer | iTunes Galfimbul 15250489441.42 GB 4 0 1531337407

22:30

11-Июл-18

Зарубежные фильмы 2016-2018 (Новинки зарубежного кино) ·%· Тихое место / A Quiet Place (2018) BDRemux 2160p от ExKinoRay | 4K | HDR | HDRezka Studio Galfimbul 4823707081544.92 GB 0 0 1531017028

05:30

8-Июл-18

Зарубежные фильмы 2016-2018 (Новинки зарубежного кино) ·%· Тихое место / A Quiet place (2018) HDRip от Scarabey | HDRezka Studio Galfimbul 15076003841.4 GB 2 0 1530547829

19:10

2-Июл-18

Зарубежные фильмы 2016-2018 (Новинки зарубежного кино) ·%· Тихое место / A Quiet Place (2018) BDRip от MegaPeer | HDrezka Studio Galfimbul 783241968747 MB 0 0 1530451217

16:20

1-Июл-18

Зарубежные фильмы 2016-2018 (Новинки зарубежного кино) ·%· Тихое место / A Quiet Place (2018) BDRip-AVC от OlLanDGroup | HDRezka Studio Galfimbul 15038551481.4 GB 2 0 1530446413

15:00

1-Июл-18

Зарубежные фильмы до 2016 ·%· Тихое место / A Quiet place (Джон Красински / John Krasinski) [2018, США, ужасы, BDRip 720p] MVO (HDRezka Studio) + Sub (Rus, Eng) + Original Eng Galfimbul 47521139324.43 GB 2 0 1530399689

02:01

1-Июл-18

Зарубежные фильмы до 2016 ·%· Тихое место / A Quiet place (Джон Красински / John Krasinski) [2018, США, Ужасы, BDRip 1080p] MVO (HDRezka Studio) + Sub (Rus, Eng) + Original Eng Galfimbul 1075949116910.02 GB 0 0 1530399680

02:01

1-Июл-18

Еще никто не оставлял запись к записи скачать торрент Тихое место A Quiet Place . Будь первым!

!Обратная связь