Animal.Kingdom.US.S01E07.720p.HDTV.X264-DIMENSION.srt | Haomen Qifu de Chuntian | Agent double

Скачать через торрент Закат в Запретном городе Sunset in the Forbidden City Фильм бесплатно в хорошем качестве torrent

Скачивайте на UnionPeer.org фильмы через торрент без регистрации. Новинки кино в хорошем качестве через торрент. На UnionPeer.org можно скачать через торрент фильмы 2014 и 2015 годов. Самые новые фильмы.

Скачать торрент Закат в Запретном городе Sunset in the Forbidden City бесплатно через .torrent фильм мультфильм сериал

Статистика раздачи
Размер:  933 MB   |    Зарегистрирован:  4 дня   |    .torrent скачан:  19 раз   |   
Раздают:  1  
   
загрузка...
 
Автор Сообщение

Galfimbul

avatar Galfimbul


Закат в Запретном городе / Sunset in the Forbidden City (Ri luo zi jin cheng) /

Страна: Тайвань
Жанр: Боевые искусства
Год выпуска: 1976
Продолжительность: 01:28:06

Перевод: Одноголосый закадровый (Chesterfiel )
Субтитры: нет
Режиссер: Линь Пай / Lin Pai

В ролях: Дориан Тань, Чиа Лин, Ма Кэй, Чан Вай-Лау, Лун Фэй, Ли Ин, Ши Тинкэнь, Вонг Юк-Пин, Клифф Чин, Ли Лун-Ям

Описание: Талантливый парень по имени Пай Му Тин приезжает в город чтобы устроиться телохранителем у местного главы господина Вонга. У Вонга есть причины беспокоиться за свою жизнь - большая часть жителей города относится к нему крайне негативно, такое отношение начинает распространяться и на Му Тина, пока тот внезапно не переходит на, казалось бы, сторону врагов...

Сэмпл: http://sendfile.su/1430268

Качество видео: DVDRip
Формат видео: AVI

Видео: MPEG4 Video (H264) 716x436 25fps 1277kbps
Аудио: Dolby AC3 48000Hz stereo 192kbps
GeneralComplete name : C:\Videos\Movavi Library\Sunset in the Forbidden City.aviFormat : AVIFormat/Info : Audio Video InterleaveFile size : 933 MiBDuration : 1h 28mnOverall bit rate : 1 480 KbpsMovie name : VIDEO_DVD.Title1Writing application : Lavf56.40.101Original source form/Name : VIDEO_DVD

VideoID : 0Format : AVCFormat/Info : Advanced Video CodecFormat profile : [email protected] settings, CABAC : NoFormat settings, ReFrames : 4 framesFormat settings, GOP : M=4, N=24Codec ID : H264Duration : 1h 28mnBit rate : 1 272 KbpsWidth : 716 pixelsHeight : 436 pixelsDisplay aspect ratio : 1.642Frame rate : 25.000 fpsColor space : YUVChroma subsampling : 4:2:0Bit depth : 8 bitsScan type : ProgressiveBits/(Pixel*Frame) : 0.163Stream size : 805 MiB (86%)Writing library : x264 core 148

AudioID : 1Format : AC-3Format/Info : Audio Coding 3Mode extension : CM (complete main)Codec ID : 2000Duration : 1h 28mnBit rate mode : ConstantBit rate : 192 KbpsChannel(s) : 2 channelsChannel positions : Front: L RSampling rate : 48.0 KHzBit depth : 16 bitsCompression mode : LossyStream size : 121 MiB (13%)Alignment : Aligned on interleavesInterleave, duration : 32 ms (0.80 video frame)
За появление релиза спасибо - loxaba, andruxa564, Maks, sersh, Денис_КА, Grey_Wolf, анемподист, -Holo-, lvbnhbq34, kolobok, Chesterfield


Трекер:  [ 12-Июл-2018 14:01 ]

  

Скачать .torrent

Размер .torrent файла 18 KB


Размер: 933 MB
Хэш (hash) релиза: b430d9bace035c40578bda3e4a0991f07f445dc9
Подписка на обновления:

Еще никто не оставлял запись к записи скачать торрент Закат в Запретном городе Sunset in the Forbidden City . Будь первым!

!Обратная связь