Movies Counter | Melissa Leo | Osaczona / Acorralada

Скачать через торрент Смерть Супермена The Death of Superman Фильм бесплатно в хорошем качестве torrent

Скачивайте на UnionPeer.org фильмы через торрент без регистрации. Новинки кино в хорошем качестве через торрент. На UnionPeer.org можно скачать через торрент фильмы 2014 и 2015 годов. Самые новые фильмы.

Скачать торрент Смерть Супермена The Death of Superman бесплатно через .torrent фильм мультфильм сериал

Статистика раздачи
Размер:  3.24 GB   |    Зарегистрирован:  4 дня   |    .torrent скачан:  111 раз   |   
Раздают:  16   Качают:  1  
   
загрузка...
 
Автор Сообщение

Galfimbul

avatar Galfimbul


Смерть Супермена / The Death of Superman

Страна: США
Производство: DC Entertainment, Warner Bros. Animation
Год выпуска: 2018
Жанр: мультфильм, фантастика, боевик
Продолжительность: 01:20:54

Режиссеры: Джейк Касторена, Сэм Лью
Авторы сценария: Джерри Сигел, Джо Шустер, Луиз Симонсон

В ролях: Джерри О’Коннелл, Ребекка Ромейн, Рэйн Уилсон, Розарио Доусон, Нэйтан Филлион, Кристофер Горам, Мэтт Лантер, Шемар Мур

Описание: Кларк Кент подумывает о том, чтобы раскрыть возлюбленной Лоис Лэйн свой самый большой секрет - что он является Суперменом. В это же время на Землю прибывает страшное чудовище Думсдэй, обладающее невероятной силой и злобой. Все супергерои в составе Лиги справедливости с трудом сдерживают монстра, поэтому Супермену придётся отложить свои личные дела и постараться помочь товарищам победить врага...



Перевод: Профессиональный (многоголосый, закадровый) | HDrezka Studio
Субтитры: нет
Качество: WEB-DL 1080p
Формат: МКV
Видео кодек: AVC
Аудио кодек: АС3
Видео: 1920х1078 (16:9), 23.976 fps, MPEG-4 AVC ~5 043 kbps avg
Аудио №1: 48.0 kHz, AC3 Dolby Digital, 2/0 (L,R) ch, ~192 kbps | RUS | HDrezka Studio
Аудио №2: 48.0 kHz, AC3 Dolby Digital, 3/2 (L,C,R,l,r) + LFE ch, ~384 kbps | ENG

Дата премьеры (мир): 24 июля 2018

General
Unique ID : 216207290862849363941041410217142082416 (0xA2A80272F79A5C3B9E0DDB6B1B475B70)
Complete name : The Death of Superman (2018) WEB-DL 1080p.mkv
Format : Matroska
Format version : Version 2
File size : 3.24 GiB
Duration : 1h 20mn
Overall bit rate : 5 733 Kbps
Encoded date : UTC 2018-07-12 06:54:09
Writing application : mkvmerge v7.8.0 ('River Man') 32bit built on Apr 3 2015 12:11:22
Writing library : libebml v1.3.1 + libmatroska v1.4.2
DURATION : 01:20:53.632000000
NUMBER_OF_FRAMES : 151676
NUMBER_OF_BYTES : 232974336
_STATISTICS_WRITING_APP : mkvmerge v24.0.0 ('Beyond The Pale') 64-bit
_STATISTICS_WRITING_DATE_UTC : 2018-06-18 14:44:45
_STATISTICS_TAGS : BPS DURATION NUMBER_OF_FRAMES NUMBER_OF_BYTES

Video
ID : 1
Format : AVC
Format/Info : Advanced Video Codec
Format profile : [email protected]
Format settings, CABAC : Yes
Format settings, ReFrames : 4 frames
Codec ID : V_MPEG4/ISO/AVC
Duration : 1h 20mn
Bit rate : 5 043 Kbps
Width : 1 920 pixels
Height : 1 078 pixels
Display aspect ratio : 16:9
Frame rate mode : Constant
Frame rate : 23.976 fps
Color space : YUV
Chroma subsampling : 4:2:0
Bit depth : 8 bits
Scan type : Progressive
Bits/(Pixel*Frame) : 0.102
Stream size : 2.85 GiB (88%)
Language : English
Default : Yes
Forced : No
Color range : Limited
Color primaries : BT.709
Transfer characteristics : BT.709
Matrix coefficients : BT.709

Audio #1
ID : 2
Format : AC-3
Format/Info : Audio Coding 3
Mode extension : CM (complete main)
Format settings, Endianness : Big
Codec ID : A_AC3
Duration : 1h 20mn
Bit rate mode : Constant
Bit rate : 192 Kbps
Channel(s) : 2 channels
Channel positions : Front: L R
Sampling rate : 48.0 KHz
Compression mode : Lossy
Stream size : 111 MiB (3%)
Language : Russian
Default : Yes
Forced : Yes

Audio #2
ID : 3
Format : AC-3
Format/Info : Audio Coding 3
Mode extension : CM (complete main)
Format settings, Endianness : Big
Codec ID : A_AC3
Duration : 1h 20mn
Bit rate mode : Constant
Bit rate : 384 Kbps
Channel(s) : 6 channels
Channel positions : Front: L C R, Side: L R, LFE
Sampling rate : 48.0 KHz
Compression mode : Lossy
Stream size : 222 MiB (7%)
Language : English
Default : No
Forced : No

Menu
00:00:00.000 : en:Chapter 1
00:09:32.000 : en:Chapter 2
00:20:02.000 : en:Chapter 3
00:32:29.000 : en:Chapter 4
00:40:18.000 : en:Chapter 5
00:51:40.000 : en:Chapter 6
01:03:31.000 : en:Chapter 7
01:11:00.000 : en:Chapter 8
01:17:04.000 : en:Chapter 9
Источник http://BlaTor.org

Трекер:  [ 12-Июл-2018 13:40 ]

  

Скачать .torrent

Размер .torrent файла 16 KB


Размер: 3.24 GB
Хэш (hash) релиза: 2af4fbb54a0a6bd12f69d12f0f30cbe5f3e0e9ca
Подписка на обновления:

Еще никто не оставлял запись к записи скачать торрент Смерть Супермена The Death of Superman . Будь первым!

!Обратная связь