Watch movie | 2014 Movies | Italo Calvino by If on a Winter's Night a Traveler

Скачать через торрент Смерть Супермена The Death of Superman Фильм бесплатно в хорошем качестве torrent

Скачивайте на UnionPeer.org фильмы через торрент без регистрации. Новинки кино в хорошем качестве через торрент. На UnionPeer.org можно скачать через торрент фильмы 2014 и 2015 годов. Самые новые фильмы.

Скачать торрент Смерть Супермена The Death of Superman бесплатно через .torrent фильм мультфильм сериал

Статистика раздачи
Размер:  1.36 GB   |    Зарегистрирован:  4 дня   |    .torrent скачан:  53 раза   |   
Раздают:  1  
   
загрузка...
 
Автор Сообщение

Galfimbul

avatar Galfimbul


Смерть Супермена / The Death of Superman

Страна: США
Производство: DC Entertainment, Warner Bros. Animation
Год выпуска: 2018
Жанр: мультфильм, фантастика, боевик
Продолжительность: 01:20:54

Режиссеры: Джейк Касторена, Сэм Лью
Авторы сценария: Джерри Сигел, Джо Шустер, Луиз Симонсон

В ролях: Джерри О’Коннелл, Ребекка Ромейн, Рэйн Уилсон, Розарио Доусон, Нэйтан Филлион, Кристофер Горам, Мэтт Лантер, Шемар Мур

Описание: Кларк Кент подумывает о том, чтобы раскрыть возлюбленной Лоис Лэйн свой самый большой секрет - что он является Суперменом. В это же время на Землю прибывает страшное чудовище Думсдэй, обладающее невероятной силой и злобой. Все супергерои в составе Лиги справедливости с трудом сдерживают монстра, поэтому Супермену придётся отложить свои личные дела и постараться помочь товарищам победить врага...



Перевод: Профессиональный (многоголосый, закадровый) | HDrezka Studio
Субтитры: нет
Качество: WEB-DLRip
Формат: AVI
Видео кодек: XviD
Аудио кодек: АС3
Видео: 720x400 (16:9), 23.976 fps, XviD ~2 031 kbps avg
Аудио: 48.0 kHz, AC3 Dolby Digital, 2/0 (L,R) ch, ~192 kbps

Дата премьеры (мир): 24 июля 2018

General
Format : AVI
Format/Info : Audio Video Interleave
File size : 1.36 GiB
Duration : 1h 20mn
Overall bit rate : 2 410 Kbps
Writing application : VirtualDubMod 1.5.10.3 | (build 2550/release)
Writing library : VirtualDubMod build 2550/release

Video
ID : 0
Format : MPEG-4 Visual
Format profile : Advanced [email protected]
Format settings, BVOP : 2
Format settings, QPel : No
Format settings, GMC : No warppoints
Format settings, Matrix : Custom
Codec ID : XVID
Codec ID/Hint : XviD
Duration : 1h 20mn
Source duration : 35mn 20s
Bit rate : 2 031 Kbps
Width : 720 pixels
Height : 400 pixels
Display aspect ratio : 16:9
Frame rate : 23.976 fps
Color space : YUV
Chroma subsampling : 4:2:0
Bit depth : 8 bits
Scan type : Progressive
Compression mode : Lossy
Bits/(Pixel*Frame) : 0.294
Stream size : 513 MiB (37%)
Writing library : XviD 1.2.1 (UTC 2008-12-04)

Audio
ID : 1
Format : AC-3
Format/Info : Audio Coding 3
Mode extension : CM (complete main)
Format settings, Endianness : Big
Codec ID : 2000
Duration : 1h 20mn
Source duration : 35mn 20s
Bit rate mode : Constant
Bit rate : 192 Kbps
Channel(s) : 2 channels
Channel positions : Front: L R
Sampling rate : 48.0 KHz
Compression mode : Lossy
Stream size : 48.5 MiB (3%)
Alignment : Split accross interleaves
Interleave, duration : 42 ms (1.00 video frame)
Interleave, preload duration : 500 ms
Источник http://BlaTor.org

Трекер:  [ 12-Июл-2018 13:20 ]

  

Скачать .torrent

Размер .torrent файла 14 KB


Размер: 1.36 GB
Хэш (hash) релиза: 5202842e0b5b6e83cccbde0d20204b6c4e3be032
Подписка на обновления:

Еще никто не оставлял запись к записи скачать торрент Смерть Супермена The Death of Superman . Будь первым!

!Обратная связь