Garo - Goldstorm | Benedict Wong | now you see me 2

Скачать через торрент Странный ангел Strange Angel Фильм бесплатно в хорошем качестве torrent

Скачивайте на UnionPeer.org фильмы через торрент без регистрации. Новинки кино в хорошем качестве через торрент. На UnionPeer.org можно скачать через торрент фильмы 2014 и 2015 годов. Самые новые фильмы.

Скачать торрент Странный ангел Strange Angel бесплатно через .torrent фильм мультфильм сериал

Статистика раздачи
Размер:  4.99 GB   |    Зарегистрирован:  7 дней   |    .torrent скачан:  18 раз   |   
Раздают:  1  
   
загрузка...
 
Автор Сообщение

Galfimbul

avatar Galfimbul


Странный ангел / Strange Angel

Год выпуска: 2018
Страна: США
Жанр: Драма, мистика, научная фантастика
Продолжительность: 00:55:00

Перевод: Профессиональный (двухголосый закадровый) [Gears Media]

Режиссёр: Дэвид Лоури, Нельсон МакКормик, Бен Уитли
В ролях: Питер Марк Кендалл, Джек Рейнор, Майкл Гэстон, Дэн Донохью, Рэнди Оглсби, Фил Абрамс, Курт Ёла, Роб Забрески, Коллин Фой

Описание: Джек Парсонс — знаменитый инженер, химик и оккультист. В 1930-х молодой человек, с детства увлекавшийся реактивным движением, начал работать уборщиком на химическом заводе в Лос-Анджелесе. Вскоре благодаря врожденному таланту и амбициям Парсонс смог положить начало американскому ракетостроению и стал одним из ключевых основателей Лаборатории реактивного движения. Однако интересы Парсона не ограничивались химией. В начале 1940-х, после кратковременного периода увлечения марксизмом, Парсонс заинтересовался учениями английского оккультиста Алистера Кроули и вместе с женой Хелен присоединился к калифорнийскому отделению ордена восточных тамплиеров.

Ссылка на предыдущие и альтернативные раздачи:http://rutracker.org/forum/tracker.php?g=foreign_se...=Strange%20Angel

Сэмпл: http://multi-up.com/1203611

Качество: WEB-DL 720p
Формат: MKV
Видео: X264, 1280x688 at 23.976 fps, ~3500 kbps avg
Аудио1: Russian, AC3, 48 kHz, 2 ch, 384 kbps
Аудио2: English, ЕAC3, 48 kHz, 6 ch, 640 kbps
Субтитры: нет
Реклама: аудио (два раза, в начале и конце, по 12 сек.)
General
Format : Matroska
Format version : Version 4 / Version 2
File size : 1.67 GiB
Duration : 54 min 27 s
Overall bit rate : 4 377 kb/s
Encoded date : UTC 2018-07-12 02:29:11
Writing application : mkvmerge v24.0.0 ('Beyond The Pale') 64-bit
Writing library : libebml v1.3.6 + libmatroska v1.4.9

Video
ID : 1
Format : AVC
Format/Info : Advanced Video Codec
Format profile : [email protected]
Format settings : CABAC / 5 Ref Frames
Format settings, CABAC : Yes
Format settings, RefFrames : 5 frames
Codec ID : V_MPEG4/ISO/AVC
Duration : 54 min 27 s
Bit rate : 3 351 kb/s
Width : 1 280 pixels
Height : 688 pixels
Display aspect ratio : 1.85:1
Frame rate mode : Constant
Frame rate : 23.976 (24000/1001) FPS
Color space : YUV
Chroma subsampling : 4:2:0
Bit depth : 8 bits
Scan type : Progressive
Bits/(Pixel*Frame) : 0.159
Stream size : 1.27 GiB (77%)
Default : Yes
Forced : No
Color range : Limited
Color primaries : BT.709
Transfer characteristics : BT.709
Matrix coefficients : BT.709

Audio #1
ID : 2
Format : AC-3
Format/Info : Audio Coding 3
Codec ID : A_AC3
Duration : 54 min 27 s
Bit rate mode : Constant
Bit rate : 384 kb/s
Channel(s) : 2 channels
Channel positions : Front: L R
Sampling rate : 48.0 kHz
Frame rate : 31.250 FPS (1536 SPF)
Bit depth : 16 bits
Compression mode : Lossy
Stream size : 150 MiB (9%)
Title : Gears Media
Language : Russian
Service kind : Complete Main
Default : Yes
Forced : Yes

Audio #2
ID : 3
Format : E-AC-3
Format/Info : Enhanced Audio Coding 3
Codec ID : A_EAC3
Duration : 54 min 27 s
Bit rate mode : Constant
Bit rate : 640 kb/s
Channel(s) : 6 channels
Channel positions : Front: L C R, Side: L R, LFE
Sampling rate : 48.0 kHz
Frame rate : 187.500 FPS (256 SPF)
Compression mode : Lossy
Stream size : 249 MiB (15%)
Language : English
Service kind : Complete Main
Default : No
Forced : No
<div class="sp-wrap">
<div class="sp-head folded">Внимание! Раздача ведётся путём добавления новых серий</div>
<div class="sp-body">[b]Внимание! Раздача ведётся путём добавления новых серий; при каждом добавлении создаётся новый торрент. Чтобы начать докачку новой серии, пользователям необходимо сделать следующее:
(1) остановить скачивание,
(2) удалить старый торрент у себя из клиента (старые серии удалять не надо),
(3) скачать новый торрент и запустить его у себя в клиенте вместо старого, при этом указать клиенту путь в старую папку куда и должно происходить скачивание новых серий.

Eсли вы уже удалили старые серии, то предотвратить повторную закачку старых серий можно, отжав галочку в соответствующих местах при запуске нового торрента. По возможности, желательно не удалять старые серии как можно дольше чтобы релизёр не столько продолжал раздавать старые серии, а смог сконцентрироваться на новых.</div>
</div>

Трекер:  [ 12-Июл-2018 13:18 ]

  

Скачать .torrent

Размер .torrent файла 100 KB


Размер: 4.99 GB
Хэш (hash) релиза: 43460e991246696801fb431710f806acd7cea660
Подписка на обновления:

Еще никто не оставлял запись к записи скачать торрент Странный ангел Strange Angel . Будь первым!

!Обратная связь