Drużyna RR / Chip 'n Dale R... | Full Convert Enterprise 18 06 1460 [Crackzsoft] | Epson Printer Manual Wf 3620

Скачать через торрент Чаппакуиддик Chappaquiddick Фильм бесплатно в хорошем качестве torrent

Скачивайте на UnionPeer.org фильмы через торрент без регистрации. Новинки кино в хорошем качестве через торрент. На UnionPeer.org можно скачать через торрент фильмы 2014 и 2015 годов. Самые новые фильмы.

Скачать торрент Чаппакуиддик Chappaquiddick бесплатно через .torrent фильм мультфильм сериал

Статистика раздачи
Размер:  1.2 GB   |    Зарегистрирован:  4 дня   |    .torrent скачан:  23 раза   |   
Раздают:  1  
   
загрузка...
 
Автор Сообщение

Galfimbul

avatar Galfimbul


Чаппакуиддик / Chappaquiddick
«The Untold True Story»


Год выпуска: 2017
Страна: Швеция, США
Производство: Apex Entertainment, Chimney, DMG Entertainment
Жанр: Триллер, драма, история

Режиссёр: Джон Кёрран
В ролях: Джейсон Кларк, Эд Хелмс, Джим Гэффиган, Кейт Мара, Брюс Дерн, Джон Фиоре, Джиллиан Маринер Гордон, Оливия Тирлби, Кэти Хенох, Лекси Рот

Перевод: Профессиональный (многоголосый, закадровый) | HDrezka Studio
Субтитры: Русские (полные), Английские (полные, SDH)
Реклама: Отсутствует

Описание: В жизни Теда, являющегося кровным братом общеизвестного Кеннеди, имел место достаточно нелицеприятный момент, получивший широкий отклик впоследствии. События, произошедшие в 1969 году, могли иметь нежелательные последствия, положив крест на политическом будущем мужчины. Компания, состоящая из активистов, работающих конкретно на президента, отправилась на маленький островок, чтобы повеселиться и хорошо провести свободное от работы время в кругу коллег. 19 июля они устроили шумную вечеринку, надеясь от души развлечься. Около полуночи молодая секретарша изъявила хотение оставить веселое мероприятии в силу объективных обстоятельств. Тед предложил подвезти женщину на своем автомобиле. Выехать с острова можно только, преодолев мост, на котором отсутствовали перила, что имело трагические, непоправимые последствия для водителя и его спутницы.



Качество: [color=SteelBlue]BDRip-AVC
Продолжительность: 01:46:43

Формат: MKV
Видео кодек: MPEG-4 AVC
Аудио кодек: AC3
Видео: 1024x428 (2.40:1), 23,976 fps, x264 ~962 kbps avg, 0.092 bit/pixel
Аудио: 48 kHz, AC3 Dolby Digital, 2 (L,R) ch, ~192.00 kbps avg | RUS (HDRezka)
Аудио: 48 kHz, AC3 Dolby Digital, 3/2 (L,C,R,l,r) + LFE ch, ~448.00 kbps avg | ENG

Дата премьеры (мир): 10 сентября 2017
Дата премьеры (РФ):
Общее
Уникальный идентификатор : 206658539761973521919702609718195722950 (0x9B78FCABF8F77BE296B7B5743D671AC6)
Полное имя : F:OlLanDGroupChappaquiddick.2017.BDRip(AVC).OlLanDGroup.mkv
Формат : Matroska
Версия формата : Version 4 / Version 2
Размер файла : 1,20 Гбайт
Продолжительность : 1 ч. 46 м.
Общий поток : 1604 Кбит/сек
Название фильма : Chappaquiddick.2017 #TorpedoUK#
Дата кодирования : UTC 2018-07-12 08:42:59
Программа кодирования : mkvmerge v8.3.0 ('Over the Horizon') 64bit
Библиотека кодирования : libebml v1.3.1 + libmatroska v1.4.2
Обложка : Yes
Attachments : cover.jpg

Видео
Идентификатор : 1
Формат : AVC
Формат/Информация : Advanced Video Codec
Профиль формата : [email protected]
Параметр CABAC формата : Да
Параметр ReFrames формата : 10 кадров
Идентификатор кодека : V_MPEG4/ISO/AVC
Продолжительность : 1 ч. 46 м.
Битрейт : 962 Кбит/сек
Ширина : 1024 пикселя
Высота : 428 пикселей
Соотношение сторон : 2,40:1
Режим частоты кадров : Постоянный
Частота кадров : 23,976 (24000/1001) кадра/сек
Цветовое пространство : YUV
Субдискретизация насыщенности : 4:2:0
Битовая глубина : 8 бит
Тип развёртки : Прогрессивная
Бит/(Пиксели*Кадры) : 0.092
Размер потока : 734 Мбайт (60%)
Библиотека кодирования : x264 core 146 r2538 121396c
Настройки программы : cabac=1 / ref=10 / deblock=1:-3:-3 / analyse=0x3:0x113 / me=umh / subme=11 / psy=1 / psy_rd=0.98:0.05 / mixed_ref=1 / me_range=48 / chroma_me=1 / trellis=2 / 8x8dct=1 / cqm=0 / deadzone=21,11 / fast_pskip=1 / chroma_qp_offset=-3 / threads=6 / lookahead_threads=1 / sliced_threads=0 / nr=0 / decimate=1 / interlaced=0 / bluray_compat=0 / constrained_intra=0 / bframes=10 / b_pyramid=2 / b_adapt=2 / b_bias=0 / direct=3 / weightb=1 / open_gop=0 / weightp=2 / keyint=240 / keyint_min=23 / scenecut=40 / intra_refresh=0 / rc_lookahead=40 / rc=2pass / mbtree=1 / bitrate=962 / ratetol=1.0 / qcomp=0.60 / qpmin=0 / qpmax=69 / qpstep=4 / cplxblur=20.0 / qblur=0.5 / vbv_maxrate=50000 / vbv_bufsize=62500 / nal_hrd=none / filler=0 / ip_ratio=1.40 / aq=1:1.00
Язык : English
Default : Да
Forced : Нет

Аудио #1
Идентификатор : 2
Формат : AC-3
Формат/Информация : Audio Coding 3
Расширение режима : CM (complete main)
Параметр Endianness формата : Big
Идентификатор кодека : A_AC3
Продолжительность : 1 ч. 46 м.
Вид битрейта : Постоянный
Битрейт : 192 Кбит/сек
Каналы : 2 канала
Расположение каналов : Front: L R
Частота : 48,0 КГц
Частота кадров : 31,250 кадров/сек (1536 spf)
Битовая глубина : 16 бит
Метод сжатия : С потерями
Размер потока : 147 Мбайт (12%)
Заголовок : MVO [HDRezka Studio]
Язык : Russian
Default : Да
Forced : Нет

Аудио #2
Идентификатор : 3
Формат : AC-3
Формат/Информация : Audio Coding 3
Расширение режима : CM (complete main)
Параметр Endianness формата : Big
Идентификатор кодека : A_AC3
Продолжительность : 1 ч. 46 м.
Вид битрейта : Постоянный
Битрейт : 448 Кбит/сек
Каналы : 6 каналов
Расположение каналов : Front: L C R, Side: L R, LFE
Частота : 48,0 КГц
Частота кадров : 31,250 кадров/сек (1536 spf)
Битовая глубина : 16 бит
Метод сжатия : С потерями
Размер потока : 342 Мбайт (28%)
Заголовок : Original
Язык : English
Default : Нет
Forced : Нет

Текст #1
Идентификатор : 4
Формат : UTF-8
Идентификатор кодека : S_TEXT/UTF8
Идентификатор кодека/Информация : UTF-8 Plain Text
Продолжительность : 1 ч. 39 м.
Битрейт : 118 бит/сек
Count of elements : 1480
Размер потока : 86,8 Кбайт (0%)
Заголовок : Full
Язык : Russian
Default : Нет
Forced : Нет

Текст #2
Идентификатор : 5
Формат : UTF-8
Идентификатор кодека : S_TEXT/UTF8
Идентификатор кодека/Информация : UTF-8 Plain Text
Продолжительность : 1 ч. 39 м.
Битрейт : 78 бит/сек
Count of elements : 1476
Размер потока : 56,7 Кбайт (0%)
Заголовок : Full
Язык : English
Default : Нет
Forced : Нет

Текст #3
Идентификатор : 6
Формат : UTF-8
Идентификатор кодека : S_TEXT/UTF8
Идентификатор кодека/Информация : UTF-8 Plain Text
Продолжительность : 1 ч. 39 м.
Битрейт : 84 бит/сек
Count of elements : 1567
Размер потока : 61,6 Кбайт (0%)
Заголовок : SDH
Язык : English
Default : Нет
Forced : Нет

Меню
00:00:00.000 : en:Chapter 01
00:06:37.855 : en:Chapter 02
00:14:07.054 : en:Chapter 03
00:18:17.805 : en:Chapter 04
00:25:18.183 : en:Chapter 05
00:31:13.872 : en:Chapter 06
00:39:24.028 : en:Chapter 07
00:43:36.488 : en:Chapter 08
00:52:55.755 : en:Chapter 09
00:59:25.687 : en:Chapter 10
01:04:53.681 : en:Chapter 11
01:11:06.845 : en:Chapter 12
01:18:16.441 : en:Chapter 13
01:26:28.349 : en:Chapter 14
01:32:44.767 : en:Chapter 15
01:39:29.338 : en:Chapter 16
Источник http://BlaTor.org

Трекер:  [ 12-Июл-2018 12:20 ]

  

Скачать .torrent

Размер .torrent файла 12 KB


Размер: 1.2 GB
Хэш (hash) релиза: e436ba25ddf28c5a2f4b6a3788a9119ecefe27bd
Подписка на обновления:

Еще никто не оставлял запись к записи скачать торрент Чаппакуиддик Chappaquiddick . Будь первым!

!Обратная связь