Crash Bandicoot N.Sane Trilogy | Exploitation" Films of the 70s, 80s, and Beyond | 88. Anne Marie Heavy mp3

Скачать через торрент Проповедник Preacher Фильм бесплатно в хорошем качестве torrent

Скачивайте на UnionPeer.org фильмы через торрент без регистрации. Новинки кино в хорошем качестве через торрент. На UnionPeer.org можно скачать через торрент фильмы 2014 и 2015 годов. Самые новые фильмы.

Скачать торрент Проповедник Preacher бесплатно через .torrent фильм мультфильм сериал

Статистика раздачи
Размер:  2.88 GB   |    Зарегистрирован:  7 дней   |    .torrent скачан:  22 раза   |   
Раздают:  1  
   
загрузка...
 
Автор Сообщение

Galfimbul

avatar Galfimbul


Проповедник / Preacher
Год выпуска: 2018
Страна: США
Жанр: Фэнтези, драма, детектив, приключения
Продолжительность: ~00:45:00
Перевод: Профессиональный (многоголосый закадровый) NewStudio
Режиссёр: Эван Голдберг, Сет Роген, Майкл Словис
В ролях: Доминик Купер, Том Брук, У. Эрл Браун, Йен Коллетти, Джозеф Гилган, Люси Гриффитс, Джеки Эрл Хейли, Рут Негга, Дерек Уилсон, Анатол Юсеф и др.
Описание: Священник Джесси Кастер по воле случая стал носителем внутри своего естества странного существа по имени Генезис. Это дитя совокупления ангела и демона представляет собой одновременно чистый идеал и квинтэссенцию света, но также сгусток абсолютного зла. Генезис — единственное существо во Вселенной, которое может встать вровень с Богом, если того пожелает, а его носитель автоматически становится самым могущественным существом в материальном мире. И это проповедник Кастер.


Качество: WEB-DL 720p
Контейнер: MKV
Видео: AVC\H.264, 1280x720 (16:9), 23,976 fps, ~4079 kbps
Аудио # RUS: AC3, 48 KHz, 6 ch, 384 kbps
Аудио # ENG: AC3, 48 KHz, 6 ch, 384 kbps
Субтитры: Отсутствуют
Реклама: Отсутствует

Общее
Уникальный идентификатор : 128910294129247050422253971110312291956 (0x60FB38351B0D8AE1115A1EB53E782E74)
Полное имя : D:\Distributions\Preacher\Preacher.s03e01.WEBDL.720p.NewStudio.mkv
Формат : Matroska
Версия формата : Version 4 / Version 2
Размер файла : 1,42 Гбайт
Продолжительность : 41 м. 55 с.
Общий поток : 4849 Кбит/сек
Дата кодирования : UTC 2018-07-11 16:38:42
Программа кодирования : mkvmerge v24.0.0 ('Beyond The Pale') 64-bit
Библиотека кодирования : libebml v1.3.6 + libmatroska v1.4.9

Видео
Идентификатор : 1
Формат : AVC
Формат/Информация : Advanced Video Codec
Профиль формата : [email protected]
Настройки формата : 2 Ref Frames
Параметр CABAC формата : Нет
Параметр RefFrames формата : 2 кадра
Идентификатор кодека : V_MPEG4/ISO/AVC
Продолжительность : 41 м. 55 с.
Битрейт : 4079 Кбит/сек
Ширина : 1280 пикселей
Высота : 720 пикселей
Соотношение сторон : 16:9
Режим частоты кадров : Постоянный
Частота кадров : 23,976 (24000/1001) кадра/сек
Цветовое пространство : YUV
Субдискретизация насыщенности : 4:2:0
Битовая глубина : 8 бит
Тип развёртки : Прогрессивная
Бит/(Пиксели*Кадры) : 0.185
Размер потока : 1,19 Гбайт (84%)
Язык : English
Default : Да
Forced : Нет
Цветовой диапазон : Limited
Основные цвета : BT.709
Характеристики трансфера : BT.709
Коэффициенты матрицы : BT.709

Аудио #1
Идентификатор : 2
Формат : AC-3
Формат/Информация : Audio Coding 3
Идентификатор кодека : A_AC3
Продолжительность : 41 м. 55 с.
Вид битрейта : Постоянный
Битрейт : 384 Кбит/сек
Каналы : 6 каналов
Расположение каналов : Front: L C R, Side: L R, LFE
Частота : 48,0 КГц
Частота кадров : 31,250 кадров/сек (1536 SPF)
Битовая глубина : 16 бит
Метод сжатия : С потерями
Размер потока : 115 Мбайт (8%)
Язык : Russian
ServiceKind/String : Complete Main
Default : Да
Forced : Да

Аудио #2
Идентификатор : 3
Формат : AC-3
Формат/Информация : Audio Coding 3
Идентификатор кодека : A_AC3
Продолжительность : 41 м. 55 с.
Вид битрейта : Постоянный
Битрейт : 384 Кбит/сек
Каналы : 6 каналов
Расположение каналов : Front: L C R, Side: L R, LFE
Частота : 48,0 КГц
Частота кадров : 31,250 кадров/сек (1536 SPF)
Битовая глубина : 16 бит
Метод сжатия : С потерями
Размер потока : 115 Мбайт (8%)
Язык : English
ServiceKind/String : Complete Main
Default : Нет
Forced : Нет
Когда раздача ведётся путём добавления новых серий, при каждом добавлении создётся новый торрент. Чтобы начать докачку новой серии, пользователям необходимо сделать следующее:
(1) остановить скачивание,
(2) удалить старый торрент у себя из клиента (старые серии удалять не надо),
(3) скачать новый торрент и запустить его у себя в клиенте вместо старого, при этом указать клиенту путь в старую папку, куда и должно происходить скачивание новых серий.
Ваш клиент при этом должен произвести хеширование (проверку) старой папки (если не производит сам - помогите ему сделать это), и будет докачивать только те серии, которых у вас ещё нет. Старые серии при этом не удаляются, а продолжают раздаваться!
Eсли вы уже удалили старые серии, то предотвратить повторную закачку старых серий можно, отжав галочку в соответсвующих местах при запуске нового торрента. По возможности, желательно не удалять старые серии как можно дольше, чтобы релизёр не столько продолжал раздавать старые серии, а смог сконцентрироваться на новых.


Трекер:  [ 12-Июл-2018 12:18 ]

  

Скачать .torrent

Размер .torrent файла 15 KB


Размер: 2.88 GB
Хэш (hash) релиза: 8feb36fe8f36b7850c31b72a6b73361be5e59b76
Подписка на обновления:

Торренты, похожие на Проповедник Preacher скачать торрент

Форум Название Автор Размер S L Добавлен
Зарубежные сериалы ·%· Проповедник / Preacher / Сезон: 3 / Серии: 1-2 из 13 (Майкл Словис, Эван Голдберг, Сет Роген) [2018, США, фэнтези, драма, детектив, приключения., WEB-DL 720p] MVO (Baibako) + Original + Sub (Eng) Galfimbul 26848019892.5 GB 0 0 1530793095

15:18

5-Июл-18

Еще никто не оставлял запись к записи скачать торрент Проповедник Preacher . Будь первым!

!Обратная связь