épisode 11 streaming I Ain´t A Judas | Olivia Cheng | The Year of Spectacular Men 2018 10

Скачать порно через торрент Rakichieri Куртизанка Реки UnionPeer.org бесплатно онлайн HD качество

Скачать новое порно 2015, 2014 новинки через торрент UnionPeer.org

Порно торрент бесплатно ЮнионПир.орг

Статистика раздачи
Размер:  1.21 GB   |    Зарегистрирован:  7 дней   |    .torrent скачан:  226 раз   |   
Раздают:  2  
   
загрузка...
 
Автор Сообщение

Galfimbul

avatar Galfimbul


Rakichieri / らきちぇり / Куртизанка Реки

Год выпуска: 2017
Жанр: DMM monopoly, Blond Hair, The breast, Titty Fuck, Creampie, Big Tits
Продолжительность: 20mn 44s
Цензура: Есть во всех файлах

Язык: Японский
Озвучка: Оригинальная
Субтитры: Встроенные неотключаемые (хардсаб) Jap

Студия: komiroto

Описание: Be one day.
Unusually beautiful Older Sister moved in to such country.

The friend who has been carried away in Bijin of the Type which there was not in this neighborhood
Said a terrible thing to the material of the story.

Even if "it is this this fellow year, be still Cherry Boy…" (laugh)

Understood that an eye color of the Older Sister changed at a moment.

"Is A so?…Huh….
…Then may I get it?…?"

Employed a dumfounded friend, and decided to go to the hut of the detached room.

Доп. информация: http://www.dmm.co.jp/en/dc/doujin/-/detail/=/cid=d_109941/
http://www.dmm.co.jp/dc/doujin/-/detail/=/cid=d_109941/

Качество видео: SiteRip
Разрешение видео: 720p
Формат видео: MP4
Видео: MPEG4 Video (H264) 1280x720 59.94fps 8141kbps
Аудио 1: Jap AAC 48000Hz stereo 189kbps
General
Complete name : rakichieri.mp4
Format : MPEG-4
Format profile : Base Media
Codec ID : isom
File size : 1.21 GiB
Duration : 20mn 44s
Overall bit rate : 8 340 Kbps
Encoded date : UTC 2017-12-21 16:21:35
Tagged date : UTC 2017-12-21 16:21:35
Writing application : Lavf56.36.100

Video
ID : 2
Format : AVC
Format/Info : Advanced Video Codec
Format profile : [email protected]
Format settings, CABAC : No
Format settings, ReFrames : 1 frame
Codec ID : avc1
Codec ID/Info : Advanced Video Coding
Duration : 20mn 44s
Bit rate : 8 142 Kbps
Width : 1 280 pixels
Height : 720 pixels
Display aspect ratio : 16:9
Frame rate mode : Constant
Frame rate : 59.940 fps
Color space : YUV
Chroma subsampling : 4:2:0
Bit depth : 8 bits
Scan type : Progressive
Bits/(Pixel*Frame) : 0.147
Stream size : 1.18 GiB (98%)
Encoded date : UTC 2017-12-21 16:21:35
Tagged date : UTC 2017-12-21 16:21:35

Audio
ID : 1
Format : AAC
Format/Info : Advanced Audio Codec
Format profile : LC
Codec ID : 40
Duration : 20mn 44s
Bit rate mode : Constant
Bit rate : 192 Kbps
Channel count : 2 channels
Channel positions : Front: L R
Sampling rate : 48.0 KHz
Compression mode : Lossy
Stream size : 28.1 MiB (2%)
Encoded date : UTC 2017-12-21 16:21:35
Tagged date : UTC 2017-12-21 16:21:35


Трекер:  [ 12-Июл-2018 03:23 ]

  

Скачать .torrent

Размер .torrent файла 12 KB


Размер: 1.21 GB
Хэш (hash) релиза: 5472a484442e0a77d93e60b18b116352332fbb8e

Еще никто не оставлял запись к записи скачать торрент Rakichieri Куртизанка Реки . Будь первым!

!Обратная связь