Aim for the Top! Gunbuster + Specials | 720p | BDRip | English Subbed | Anicoders | Bokura wa Minna Kawaisou | Doc Martin UK

Скачать через торрент IndyLights 2018. Этап 6. Iowa 100. Гонка. Viasat Sport HD Фильм бесплатно в хорошем качестве torrent

Скачивайте на UnionPeer.org фильмы через торрент без регистрации. Новинки кино в хорошем качестве через торрент. На UnionPeer.org можно скачать через торрент фильмы 2014 и 2015 годов. Самые новые фильмы.

Скачать торрент IndyLights 2018. Этап 6. Iowa 100. Гонка. Viasat Sport HD бесплатно через .torrent фильм мультфильм сериал

Статистика раздачи
Размер:  3.25 GB   |    Зарегистрирован:  6 дней   |    .torrent скачан:  35 раз   |   
Раздают:  1  
   
загрузка...
 
Автор Сообщение

Galfimbul

avatar Galfimbul


IndyLights 2018. Этап 6. Iowa 100. Гонка. Viasat Sport HD

Вид спорта: Автоспорт
О трассе: Iowa Speedway - это 0.875-мильный триовал с переменным бенкигом, который такой же как и на суперспидвеев. Один круг проходится примерно за 18 секунду. Самая короткая трасса тем не менее предъявляет выскокие требования к физической подготовки и сконцентрированности гонщиков. По всему периметру овала расположено второе поколение барьеров безопасности SAFER.

Автор рипа/записи: Ales
Качество: DVB-S2 Remux
Формат видео: MKV
Видео: H264, 1920x1080Ι, 25 кадр/c, 9 402 kb/s
Аудио: MP2 2.0, 48.0 KHz, 192 kb/s
Язык комментариев:

Русский (Сергей Беднарук)
Английский (NBCSN)

Дата/Год выпуска: 10.07.2018
0:47:32
GeneralUnique ID : 216538871177803637751862010302556393596 (0xA2E7DE9EECFCC32897D65030C215D07C)Complete name : E:\IndyLights2018\IndyLights.2018.R06.Iowa.100.Race.Viasat.Sport.HD.1080I.Rus.Eng.mkvFormat : MatroskaFormat version : Version 4 / Version 2File size : 3.25 GiBDuration : 47 min 32 sOverall bit rate : 9 794 kb/sEncoded date : UTC 2018-07-11 16:58:20Writing application : mkvmerge v23.0.0 ('The Bride Said No') 64-bitWriting library : libebml v1.3.6 + libmatroska v1.4.9

VideoID : 1Format : AVCFormat/Info : Advanced Video CodecFormat profile : [email protected] settings : CABAC / 4 Ref FramesFormat settings, CABAC : YesFormat settings, RefFrames : 4 framesCodec ID : V_MPEG4/ISO/AVCDuration : 47 min 32 sBit rate : 9 402 kb/sWidth : 1 920 pixelsHeight : 1 080 pixelsDisplay aspect ratio : 16:9Frame rate mode : VariableFrame rate : 50.000 FPSOriginal frame rate : 25.000 FPSStandard : ComponentColor space : YUVChroma subsampling : 4:2:0Bit depth : 8 bitsScan type : InterlacedScan type, store method : Separated fieldsScan order : Top Field FirstBits/(Pixel*Frame) : 0.091Stream size : 3.12 GiB (96%)Default : YesForced : NoColor range : LimitedColor primaries : BT.709Transfer characteristics : BT.709Matrix coefficients : BT.709

Audio #1ID : 2Format : MPEG AudioFormat version : Version 1Format profile : Layer 2Codec ID : A_MPEG/L2Codec ID/Hint : MP2Duration : 47 min 31 sBit rate mode : ConstantBit rate : 192 kb/sChannel(s) : 2 channelsSampling rate : 48.0 kHzFrame rate : 41.667 FPS (1152 SPF)Compression mode : LossyDelay relative to video : -22 msStream size : 65.3 MiB (2%)Language : RussianDefault : YesForced : No

Audio #2ID : 3Format : MPEG AudioFormat version : Version 1Format profile : Layer 2Codec ID : A_MPEG/L2Codec ID/Hint : MP2Duration : 47 min 31 sBit rate mode : ConstantBit rate : 192 kb/sChannel(s) : 2 channelsSampling rate : 48.0 kHzFrame rate : 41.667 FPS (1152 SPF)Compression mode : LossyDelay relative to video : -22 msStream size : 65.3 MiB (2%)Language : EnglishDefault : NoForced : No


Трекер:  [ 12-Июл-2018 01:12 ]

  

Скачать .torrent

Размер .torrent файла 33 KB


Размер: 3.25 GB
Хэш (hash) релиза: 102fbc1516b60edfab3b6ea8afe6b9ecac101144
Подписка на обновления:

Торренты, похожие на IndyLights 2018. Этап 6. Iowa 100. Гонка. Viasat Sport HD скачать торрент

Форум Название Автор Размер S L Добавлен
Спорт ·%· IndyLights 2018. Этап 6. Iowa 100. Гонка. Viasat Sport HD [10.07.2018, Автоспорт, DVB-S2 Rip 720p, Рус/Анг] Galfimbul 15643104091.46 GB 0 0 1531347136

01:12

12-Июл-18

Еще никто не оставлял запись к записи скачать торрент IndyLights 2018. Этап 6. Iowa 100. Гонка. Viasat Sport HD . Будь первым!

!Обратная связь