Him and Her 4. Sezon | F1 Gran Premio China 2010 | 28-05-2018, 09:02

Скачать через торрент IndyLights 2018. Этап 6. Iowa 100. Гонка. Viasat Sport HD Фильм бесплатно в хорошем качестве torrent

Скачивайте на UnionPeer.org фильмы через торрент без регистрации. Новинки кино в хорошем качестве через торрент. На UnionPeer.org можно скачать через торрент фильмы 2014 и 2015 годов. Самые новые фильмы.

Скачать торрент IndyLights 2018. Этап 6. Iowa 100. Гонка. Viasat Sport HD бесплатно через .torrent фильм мультфильм сериал

Статистика раздачи
Размер:  1.46 GB   |    Зарегистрирован:  6 дней   |    .torrent скачан:  35 раз   |   
Раздают:  1  
   
загрузка...
 
Автор Сообщение

Galfimbul

avatar Galfimbul


IndyLights 2018. Этап 6. Iowa 100. Гонка. Viasat Sport HD

Вид спорта: Автоспорт
О трассе: Iowa Speedway - это 0.875-мильный триовал с переменным бенкигом, который такой же как и на суперспидвеев. Один круг проходится примерно за 18 секунду. Самая короткая трасса тем не менее предъявляет выскокие требования к физической подготовки и сконцентрированности гонщиков. По всему периметру овала расположено второе поколение барьеров безопасности SAFER.

Автор рипа/записи: Ales
Качество: DVB-S2 Rip
Формат видео: MKV
Видео: H264, 1280x720P, 50 кадр/c, 4 000 kb/s
Аудио: MP2 2.0, 48.0 KHz, 192 kb/s
Язык комментариев:

Русский (Сергей Беднарук)
Английский (NBCSN)

Дата/Год выпуска: 10.07.2018
0:47:32
GeneralUnique ID : 176888488663822361482584097666903627039 (0x85137BD4A5F7DF71A331F8FDA5D4D51F)Complete name : E:\IndyLights2018\IndyLights.2018.R06.Iowa.100.Race.Viasat.Sport.HD.720P.Rus.Eng.mkvFormat : MatroskaFormat version : Version 4 / Version 2File size : 1.46 GiBDuration : 47 min 31 sOverall bit rate : 4 388 kb/sEncoded date : UTC 2018-07-10 23:43:17Writing application : mkvmerge v9.1.0 ('Little Earthquakes') 64bitWriting library : libebml v1.3.3 + libmatroska v1.4.4

VideoID : 1Format : AVCFormat/Info : Advanced Video CodecFormat profile : [email protected] settings : 4 Ref FramesFormat settings, CABAC : NoFormat settings, RefFrames : 4 framesCodec ID : V_MPEG4/ISO/AVCDuration : 47 min 31 sBit rate : 4 000 kb/sWidth : 1 280 pixelsHeight : 720 pixelsDisplay aspect ratio : 16:9Frame rate mode : ConstantFrame rate : 50.000 FPSColor space : YUVChroma subsampling : 4:2:0Bit depth : 8 bitsScan type : ProgressiveBits/(Pixel*Frame) : 0.087Stream size : 1.33 GiB (91%)Writing library : x264 core 148 r2705kMod 3f5ed56Encoding settings : cabac=0 / ref=1 / deblock=0:0:0 / analyse=0x3:0x113 / me=hex / subme=2 / psy=1 / fade_compensate=0.10 / psy_rd=1.00:0.00 / mixed_ref=0 / me_range=16 / chroma_me=1 / trellis=0 / 8x8dct=1 / cqm=0 / deadzone=21,11 / fast_pskip=1 / chroma_qp_offset=0 / threads=2 / lookahead_threads=1 / sliced_threads=0 / nr=0 / decimate=1 / interlaced=0 / bluray_compat=0 / constrained_intra=0 / fgo=0 / bframes=3 / b_pyramid=2 / b_adapt=1 / b_bias=0 / direct=1 / weightb=0 / open_gop=0 / weightp=0 / keyint=250 / keyint_min=25 / scenecut=40 / intra_refresh=0 / rc_lookahead=10 / rc=abr / mbtree=1 / bitrate=4000 / ratetol=1.0 / qcomp=0.60 / qpmin=0 / qpmax=69 / qpstep=4 / ip_ratio=1.40 / aq=1:1.00Default : YesForced : No

Audio #1ID : 2Format : MPEG AudioFormat version : Version 1Format profile : Layer 2Codec ID : A_MPEG/L2Codec ID/Hint : MP2Duration : 47 min 31 sBit rate mode : ConstantBit rate : 192 kb/sChannel(s) : 2 channelsSampling rate : 48.0 kHzFrame rate : 41.667 FPS (1152 SPF)Compression mode : LossyStream size : 65.3 MiB (4%)Language : RussianDefault : YesForced : No

Audio #2ID : 3Format : MPEG AudioFormat version : Version 1Format profile : Layer 2Codec ID : A_MPEG/L2Codec ID/Hint : MP2Duration : 47 min 31 sBit rate mode : ConstantBit rate : 192 kb/sChannel(s) : 2 channelsSampling rate : 48.0 kHzFrame rate : 41.667 FPS (1152 SPF)Compression mode : LossyStream size : 65.3 MiB (4%)Language : EnglishDefault : NoForced : No


Трекер:  [ 12-Июл-2018 01:12 ]

  

Скачать .torrent

Размер .torrent файла 29 KB


Размер: 1.46 GB
Хэш (hash) релиза: e007377e1ce53a8f98f39de743e5825add6e05bb
Подписка на обновления:

Торренты, похожие на IndyLights 2018. Этап 6. Iowa 100. Гонка. Viasat Sport HD скачать торрент

Форум Название Автор Размер S L Добавлен
Спорт ·%· IndyLights 2018. Этап 6. Iowa 100. Гонка. Viasat Sport HD [10.07.2018, Автоспорт, DVB-S2 Remux 1080i, Рус/Анг] Galfimbul 34916841083.25 GB 0 0 1531347146

01:12

12-Июл-18

Еще никто не оставлял запись к записи скачать торрент IndyLights 2018. Этап 6. Iowa 100. Гонка. Viasat Sport HD . Будь первым!

!Обратная связь