I Feel Pretty (2018) | Bungou Stray Dogs | Eps1 The 100 - Season 5 (2018)

Скачать через торрент [ATV3] Остров собак Isle of Dogs бесплатно русская версия torrent активатор

Статистика раздачи
Размер:  5.54 GB   |    Зарегистрирован:  4 дня   |    .torrent скачан:  38 раз   |   
Раздают:  1  
   
загрузка...
 
Автор Сообщение

Galfimbul

avatar Galfimbul


Остров собак / Isle of Dogs
-

8.320 / 10 8.10 / 10
Год выпуска: 2018
Страна: США
Жанр: Мультфильм, фэнтези, драма, комедия, приключения
Продолжительность: 01:41:09

Перевод: Дублированный (iTunes)
Оригинальная аудиодорожка: Есть
Cубтитры: Русские, Английские
Режиссёр: Уэс Андерсон
Сценарий: Уэс Андерсон, Роман Коппола, Джейсон Шварцман
Продюсер: Бен Адлер, Уэс Андерсон, Эли Буш
Оператор: Тристан Оливер
Композитор: Александр Деспла
Художник: Пол Хэррод, Адам Штокхаузен, Курт Эндерле
Монтаж: Эдвард Бёрш, Ральф Фостер, Эндрю Вайсблум
В ролях: Брайан Крэнстон, Кою Ранкин, Эдвард Нортон, Боб Бэлабан, Билл Мюррей, Джефф Голдблюм, Кунъити Номура, Акира Такаяма, Грета Гервиг, Фрэнсис МакДорманд

Сборы в США: $31 914 239
Сборы в мире: + $30 906 087 = $62 820 326
Сборы в России: $597 243

Мировая премьера: 15 февраля 2018
Премьера (РФ): 3 мая 2018, «Двадцатый Век Фокс СНГ»

Релиз на DVD: 20 августа 2018, «НД Плэй»
Релиз на Blu-Ray: 20 августа 2018, «НД Плэй»

Цифровой релиз: 29 июня 2018, «Двадцатый Век Фокс СНГ»

Описание: История 12-летнего мальчика Атари Кобаяши, опекаемого коррумпированным мэром Кобаяши. Когда по Указу последнего все домашние собаки города Мегасаки изгоняются на громадную свалку, Атари в одиночку отправляется на миниатюрном летательном аппарате на мусорный остров, чтобы найти своего верного пса по прозвищу Спотс. Там на острове вместе со стаей новых друзей-дворняг он начнет эпичное путешествие, которое решит будущую судьбу всей Префектуры.
Качество исходника: BDRemux (BlueBird)
Качество: BDRip
Тип: HD (1080p)
Контейнер: M4V
Видео: H.264, 1920x800, 2.40:1, 6 500 Kbps, 23.976 fps

Аудио 1: Русский/Дублированный (iTunes), AAC / 2.0 / 160 Kbps / 48.0 KHz
Аудио 2: Английский/Оригинальная дорожка , AAC / 2.0 / 160 Kbps / 48.0 KHz
Аудио 3: Русский/Дублированный (iTunes), AC-3 / 5.1 / 384 Kbps / 48.0 KHz
Аудио 4: Английский/Оригинальная дорожка , AC-3 / 5.1 / 640 Kbps / 48.0 KHz

Субтитры 1: Русские полные
Субтитры 2: Английские полные
Sort Name: Isle of Dogs
XID: Apple:vendor_id:2018-939785
contentID: 1363298490
Copyright: © 2018 Twentieth Century Fox Film Corporation. All rights reserved.
Screenwriters: Уэс Андерсон, Роман Коппола, Джейсон Шварцман
Producers: Бен Адлер, Уэс Андерсон, Эли Буш
Director: Уэс Андерсон
Cast: Брайан Крэнстон, Кою Ранкин, Эдвард Нортон, Боб Бэлабан, Билл Мюррей, Джефф Голдблюм, Кунъити Номура, Акира Такаяма, Грета Гервиг
Studio: Fox Searchlight
Rating: 4
Long Description: История 12-летнего мальчика Атари Кобаяши, опекаемого коррумпированным мэром Кобаяши. Когда по Указу последнего все домашние собаки города Мегасаки изгоняются на громадную свалку, Атари в одиночку отправляется на миниатюрном летательном аппарате на мусорный остров, чтобы найти своего верного пса по прозвищу Спотс. Там на острове вместе со стаей новых друзей-дворняг он начнет эпичное путешествие, которое решит будущую судьбу всей Префектуры.
Description: История 12-летнего мальчика Атари Кобаяши, опекаемого коррумпированным мэром Кобаяши. Когда по Указу последнего все домашние собаки города Мегасаки изгоняются на громадную свалку, Атари в одиночку отправляется на миниатюрном летательном аппарате на мусорный остров, чтобы найти своего верного пса по прозвищу Спотс.
Release Date: 2018-03-23T07:00:00Z
Genre: Comedy
Artist: Wes Anderson
Name: Isle of Dogs
General
Complete name : /Users/imac/HandBrake/Isle of Dogs (1080p HD).m4v
Format : MPEG-4
Codec ID : M4V
File size : 5.54 GiB
Duration : 1h 41mn
Overall bit rate mode : Variable
Overall bit rate : 7 845 Kbps
Movie name : Isle of Dogs
Performer : Wes Anderson
Director : Уэс Андерсон
Actor : Брайан Крэнстон / Кою Ранкин / Эдвард Нортон / Боб Бэлабан / Билл Мюррей / Джефф Голдблюм / Кунъити Номура / Акира Такаяма / Грета Гервиг
Screenplay by : Уэс Андерсон / Роман Коппола / Джейсон Шварцман
Producer : Бен Адлер / Уэс Андерсон / Эли Буш
Production studio : Fox Searchlight
Genre : Comedy
ContentType : Short Film
Description : История 12-летнего мальчика Атари Кобаяши, опекаемого коррумпированным мэром Кобаяши. Когда по Указу последнего все домашние собаки города Мегасаки изгоняются на громадную свалку, Атари в одиночку отправляется на миниатюрном летательном аппарате на мусорный остров, чтобы найти своего верного пса по прозвищу Спотс.
Recorded date : UTC 2018-03-23 07:00:00
Encoded date : UTC 2018-07-11 17:34:02
Tagged date : UTC 2018-07-11 17:36:20
Copyright : © 2018 Twentieth Century Fox Film Corporation. All rights reserved.
Cover : Yes
Rating : None
Title/Sort : Isle of Dogs
LongDescription : История 12-летнего мальчика Атари Кобаяши, опекаемого коррумпированным мэром Кобаяши. Когда по Указу последнего все домашние собаки города Мегасаки изгоняются на громадную свалку, Атари в одиночку отправляется на миниатюрном летательном аппарате на мусорный остров, чтобы найти своего верного пса по прозвищу Спотс. Там на острове вместе со стаей новых друзей-дворняг он начнет эпичное путешествие, которое решит будущую судьбу всей Префектуры.
AppleStoreCatalogID : 1363298490
Vendor : Apple:vendor_id:2018-939785
ContentRating : mpaa|PG-13|300|

Video #1
ID : 1
Format : AVC
Format/Info : Advanced Video Codec
Format profile : [email protected]
Format settings, CABAC : Yes
Format settings, ReFrames : 4 frames
Codec ID : avc1
Codec ID/Info : Advanced Video Coding
Duration : 1h 41mn
Source duration : 1h 41mn
Bit rate : 6 500 Kbps
Width : 1 920 pixels
Height : 800 pixels
Display aspect ratio : 2.40:1
Frame rate mode : Variable
Frame rate : 23.976 fps
Minimum frame rate : 23.974 fps
Maximum frame rate : 23.981 fps
Color space : YUV
Chroma subsampling : 4:2:0
Bit depth : 8 bits
Scan type : Progressive
Bits/(Pixel*Frame) : 0.177
Stream size : 4.59 GiB (83%)
Source stream size : 4.59 GiB (83%)
Title : Main Program
Writing library : x264 core 155 r2901 7d0ff22
Encoding settings : cabac=1 / ref=4 / deblock=1:-2:-2 / analyse=0x3:0x133 / me=umh / subme=10 / psy=1 / psy_rd=1.00:0.15 / mixed_ref=1 / me_range=32 / chroma_me=1 / trellis=2 / 8x8dct=1 / cqm=0 / deadzone=21,11 / fast_pskip=1 / chroma_qp_offset=-3 / threads=25 / lookahead_threads=6 / sliced_threads=0 / nr=0 / decimate=0 / interlaced=0 / bluray_compat=0 / constrained_intra=0 / bframes=16 / b_pyramid=2 / b_adapt=2 / b_bias=0 / direct=3 / weightb=1 / open_gop=0 / weightp=2 / keyint=240 / keyint_min=24 / scenecut=40 / intra_refresh=0 / rc_lookahead=40 / rc=2pass / mbtree=1 / bitrate=6500 / ratetol=1.0 / qcomp=0.70 / qpmin=0 / qpmax=69 / qpstep=4 / cplxblur=20.0 / qblur=0.5 / ip_ratio=1.40 / aq=1:1.00
Language : English
Encoded date : UTC 2018-07-11 17:34:02
Tagged date : UTC 2018-07-11 17:34:14
Color range : Limited
Color primaries : BT.709
Transfer characteristics : BT.709
Matrix coefficients : BT.709

Video #2
ID : 9
Format : JPEG
Codec ID : jpeg
Duration : 1h 41mn
Bit rate mode : Variable
Bit rate : 1 334 bps
Width : 640 pixels
Height : 266 pixels
Display aspect ratio : 2.40:1
Frame rate mode : Variable
Frame rate : 0.004 fps
Minimum frame rate : 0.003 fps
Maximum frame rate : 0.007 fps
Color space : YUV
Chroma subsampling : 4:2:0
Bit depth : 8 bits
Compression mode : Lossy
Bits/(Pixel*Frame) : 1.959
Stream size : 977 KiB (0%)
Title : Chapter Images
Language : English
Encoded date : UTC 2018-07-11 17:34:28
Tagged date : UTC 2018-07-11 17:34:29

Audio #1
ID : 2
Format : AAC
Format/Info : Advanced Audio Codec
Format profile : LC
Codec ID : 40
Duration : 1h 41mn
Source duration : 1h 41mn
Bit rate mode : Variable
Bit rate : 156 Kbps
Maximum bit rate : 233 Kbps
Channel(s) : 2 channels
Channel positions : Front: L R
Sampling rate : 48.0 KHz
Compression mode : Lossy
Stream size : 113 MiB (2%)
Source stream size : 113 MiB (2%)
Title : Russian Stereo
Language : Russian
Encoded date : UTC 2018-07-11 17:34:02
Tagged date : UTC 2018-07-11 17:34:18

Audio #2
ID : 3
Format : AAC
Format/Info : Advanced Audio Codec
Format profile : LC
Codec ID : 40
Duration : 1h 41mn
Source duration : 1h 41mn
Bit rate mode : Variable
Bit rate : 157 Kbps
Maximum bit rate : 253 Kbps
Channel(s) : 2 channels
Channel positions : Front: L R
Sampling rate : 48.0 KHz
Compression mode : Lossy
Stream size : 113 MiB (2%)
Source stream size : 113 MiB (2%)
Title : English Stereo
Language : English
Encoded date : UTC 2018-07-11 17:34:02
Tagged date : UTC 2018-07-11 17:34:18

Audio #3
ID : 4
Format : AC-3
Format/Info : Audio Coding 3
Mode extension : CM (complete main)
Format settings, Endianness : Big
Codec ID : ac-3
Duration : 1h 41mn
Bit rate mode : Constant
Bit rate : 384 Kbps
Channel(s) : 6 channels
Channel positions : Front: L C R, Side: L R, LFE
Sampling rate : 48.0 KHz
Bit depth : 16 bits
Compression mode : Lossy
Stream size : 278 MiB (5%)
Title : Russian DD 5.1
Language : Russian
Encoded date : UTC 2018-07-11 17:34:02
Tagged date : UTC 2018-07-11 17:34:16

Audio #4
ID : 5
Format : AC-3
Format/Info : Audio Coding 3
Mode extension : CM (complete main)
Format settings, Endianness : Big
Codec ID : ac-3
Duration : 1h 41mn
Bit rate mode : Constant
Bit rate : 640 Kbps
Channel(s) : 6 channels
Channel positions : Front: L C R, Side: L R, LFE
Sampling rate : 48.0 KHz
Bit depth : 16 bits
Compression mode : Lossy
Stream size : 463 MiB (8%)
Title : English DD 5.1
Language : English
Encoded date : UTC 2018-07-11 17:34:02
Tagged date : UTC 2018-07-11 17:34:16

Text #1
ID : 6
Format : Timed Text
Muxing mode : sbtl
Codec ID : tx3g
Duration : 1h 34mn
Bit rate mode : Variable
Bit rate : 104 bps
Stream size : 72.3 KiB (0%)
Title : Russian full
Language : Russian
Encoded date : UTC 2018-07-11 17:34:02
Tagged date : UTC 2018-07-11 17:34:02

Text #2
ID : 7
Format : Timed Text
Muxing mode : sbtl
Codec ID : tx3g
Duration : 1h 34mn
Bit rate mode : Variable
Bit rate : 68 bps
Stream size : 47.2 KiB (0%)
Title : English full
Language : English
Encoded date : UTC 2018-07-11 17:34:02
Tagged date : UTC 2018-07-11 17:34:02

Menu #1
00:00:00.000 : 00:00:00.000
00:03:36.049 : 00:03:36.049
00:07:53.181 : 00:07:53.181
00:13:41.195 : 00:13:41.195
00:16:39.373 : 00:16:39.373
00:20:45.035 : 00:20:45.035
00:26:04.313 : 00:26:04.312
00:29:27.266 : 00:29:27.265
00:35:58.573 : 00:35:58.573
00:40:36.476 : 00:40:36.475
00:44:46.434 : 00:44:46.433
00:48:15.101 : 00:48:15.100
00:52:07.499 : 00:52:07.499
00:56:06.780 : 00:56:06.780
00:59:07.085 : 00:59:07.085
01:03:17.711 : 01:03:17.710
01:08:45.079 : 01:08:45.079
01:14:03.230 : 01:14:03.230
01:16:34.965 : 01:16:34.965
01:20:46.925 : 01:20:46.925
01:23:36.220 : 01:23:36.219
01:30:09.738 : 01:30:09.737
01:33:02.494 : 01:33:02.493
01:35:41.236 : 01:35:41.235

Menu #2
ID : 8
Codec ID : text
Duration : 1h 41mn
Language : English
Encoded date : UTC 2018-07-11 17:34:18
Tagged date : UTC 2018-07-11 17:34:18
Bit rate mode : CBR
00:00:00.000 : 00:00:00.000
00:03:36.049 : 00:03:36.049
00:07:53.181 : 00:07:53.181
00:13:41.195 : 00:13:41.195
00:16:39.373 : 00:16:39.373
00:20:45.035 : 00:20:45.035
00:26:04.313 : 00:26:04.312
00:29:27.266 : 00:29:27.265
00:35:58.573 : 00:35:58.573
00:40:36.476 : 00:40:36.475
00:44:46.434 : 00:44:46.433
00:48:15.101 : 00:48:15.100
00:52:07.499 : 00:52:07.499
00:56:06.780 : 00:56:06.780
00:59:07.085 : 00:59:07.085
01:03:17.711 : 01:03:17.710
01:08:45.079 : 01:08:45.079
01:14:03.230 : 01:14:03.230
01:16:34.965 : 01:16:34.965
01:20:46.925 : 01:20:46.925
01:23:36.220 : 01:23:36.219
01:30:09.738 : 01:30:09.737
01:33:02.494 : 01:33:02.493
01:35:41.236 : 01:35:41.235
x264 [info]: frame I:1053  Avg QP:12.84  size:321519
x264 [info]: frame P:36048 Avg QP:16.63  size: 80224
x264 [info]: frame B:108429 Avg QP:17.66  size: 15682
x264 [info]: consecutive B-frames:  5.2%  3.4%  8.1% 28.5% 16.9% 18.7%  8.3%  4.3%  1.9%  1.2%  1.3%  0.8%  0.4%  0.3%  0.2%  0.1%  0.5%
x264 [info]: mb I  I16..4: 14.9% 60.9% 24.2%
x264 [info]: mb P  I16..4:  2.0%  7.9%  1.2%  P16..4: 35.3% 17.9% 18.5%  1.4%  0.9%    skip:14.9%
x264 [info]: mb B  I16..4:  0.4%  0.7%  0.1%  B16..8: 29.8%  7.4%  2.2%  direct: 4.7%  skip:54.8%  L0:42.1% L1:45.4% BI:12.5%
x264 [info]: 8x8 transform intra:66.8% inter:41.6%
x264 [info]: direct mvs  spatial:98.7% temporal:1.3%
x264 [info]: coded y,uvDC,uvAC intra: 75.8% 80.7% 69.9% inter: 20.1% 22.8% 13.6%
x264 [info]: i16 v,h,dc,p: 68% 12% 10% 10%
x264 [info]: i8 v,h,dc,ddl,ddr,vr,hd,vl,hu: 12% 12% 19%  8% 10%  9%  9% 10% 11%
x264 [info]: i4 v,h,dc,ddl,ddr,vr,hd,vl,hu: 13% 12%  7%  9% 13% 12% 12% 10% 12%
x264 [info]: i8c dc,h,v,p: 55% 20% 16%  9%
x264 [info]: Weighted P-Frames: Y:2.3% UV:1.1%
x264 [info]: ref P L0: 53.9%  9.5% 27.3%  8.7%  0.6%  0.0%
x264 [info]: ref B L0: 79.2% 17.4%  3.4%
x264 [info]: ref B L1: 92.8%  7.2%
x264 [info]: kb/s:6498.93

Релиз подготовлен для просмотра на Apple TV, iPad, iPhone, iPod Touch.
Для просмотра данного релиза на компьютере с ОС Windows рекомендуется использовать VLC media player

Трекер:  [ 11-Июл-2018 21:06 ]

  

Скачать .torrent

Размер .torrent файла 56 KB


Размер: 5.54 GB
Хэш (hash) релиза: 73633b7060b024f39f42a998dfadd69c165af63d

Еще никто не оставлял запись к записи скачать торрент [ATV3] Остров собак Isle of Dogs . Будь первым!

!Обратная связь