suntan movie download 300 mb | Amateur.Teen.Selfies.Mix.Pack.376 | Hard Rap Instrumental | Aggressive Hip Hop Beat (prod. ViolentBeatz)

Скачать через торрент Смотри по сторонам Better Watch Out Фильм бесплатно в хорошем качестве torrent

Скачивайте на UnionPeer.org фильмы через торрент без регистрации. Новинки кино в хорошем качестве через торрент. На UnionPeer.org можно скачать через торрент фильмы 2014 и 2015 годов. Самые новые фильмы.

Скачать торрент Смотри по сторонам Better Watch Out бесплатно через .torrent фильм мультфильм сериал

Статистика раздачи
Размер:  1.47 GB   |    Зарегистрирован:  8 дней   |    .torrent скачан:  103 раза   |   
Раздают:  1  
   
загрузка...
 
Автор Сообщение

Galfimbul

avatar Galfimbul


Смотри по сторонам / Better Watch Out

Год выхода: 2016
Жанр: Ужасы, триллер
Страна: Австралия, США
Перевод: Дублированный | iTunes
Продолжительность: 01:28:50
Режиссер: Крис Пековер
В ролях: Оливия ДеДжонг, Леви Миллер, Эд Оксенбульд, Алекс Микич, Дакре Монтгомери, Патрик Варбертон, Вирджиния Мэдсен, Александра Матуско, Джорджия Холлэнд, Бо Андре и др.

О фильме: В доме на тихой пригородной улочке няня пытается защитить двенадцатилетнего мальчика от взломщиков, но вскоре обнаруживает, что это далеко не обыкновенное вторжение.



Файл
Формат: AVI
Качество: BDRip
Видео: Xvid, 720x304, ~1969 kbps, 24,000 fps
Звук: русский, AC3 5.1, 48 kHz, 384 kbps | iTunes
Субтитры: нет
General
Полное имя : F:TorrentBetterWatchOut2016BDRip.avi
Формат : AVI
Формат/Информация : Audio Video Interleave
Размер файла : 1.47 GiB
Продолжительность : 1 h 28 min
Общий поток : 2 362 kb/s
Программа кодирования : XviD4PSP 6.0 / 54.27.101
Библиотека кодирования : VirtualDub build 35491/release

Video
Идентификатор : 0
Формат : MPEG-4 Visual
Профиль формата : Advanced [email protected]
Настройки формата : BVOP2 / Custom Matrix
Параметр BVOP формата : 2
Параметр QPel формата : No
Параметр GMC формата : No warppoints
Параметр матрицы формата : Custom
Идентификатор кодека : XVID
Идентификатор кодека/Подсказка : XviD
Продолжительность : 1 h 28 min
Битрейт : 1 968 kb/s
Ширина : 720 pixels
Высота : 304 pixels
Соотношение сторон : 2.35:1
Частота кадров : 24.000 FPS
Цветовое пространство : YUV
Субдискретизация насыщенности : 4:2:0
Битовая глубина : 8 bits
Тип развёртки : Progressive
Метод сжатия : Lossy
Бит/(Пиксели*Кадры) : 0.375
Размер потока : 1.22 GiB (83%)
Библиотека кодирования : XviD 67

Audio
Идентификатор : 1
Формат : AC-3
Формат/Информация : Audio Coding 3
Идентификатор кодека : 2000
Продолжительность : 1 h 28 min
Вид битрейта : Constant
Битрейт : 384 kb/s
Каналы : 6 channels
Расположение каналов : Front: L C R, Side: L R, LFE
Частота : 48.0 kHz
Частота кадров : 31.250 FPS (1536 SPF)
Битовая глубина : 16 bits
Метод сжатия : Lossy
Размер потока : 244 MiB (16%)
Выравнивание : Aligned on interleaves
Продолжительность промежутка : 42 ms (1.00 video frame)
Время предзагрузки промежутка : 512 ms
Источник http://BlaTor.org

Трекер:  [ 11-Июл-2018 20:30 ]

  

Скачать .torrent

Размер .torrent файла 15 KB


Размер: 1.47 GB
Хэш (hash) релиза: 7ccd93ae7a1afc33c29480efde66e3cb2e082d1c
Подписка на обновления:

Торренты, похожие на Смотри по сторонам Better Watch Out скачать торрент

Форум Название Автор Размер S L Добавлен
Зарубежные фильмы до 2016 ·%· Смотри по сторонам / Better Watch Out (Крис Пековер / Chris Peckover) [2016, Австралия, США, ужасы, триллер, BDRemux 1080p] Dub (iTunes) + VO (BadBajo) + Sub Eng + Original Eng Galfimbul 1513978234414.1 GB 0 0 1531740671

14:31

16-Июл-18

Зарубежные фильмы до 2016 ·%· Смотри по сторонам / Better Watch Out (Крис Пековер / Chris Peckover) [2016, Австралия, США, ужасы, триллер, BDRip 720p] Dub (iTunes) + VO (BadBajo) + Sub Eng + Original Eng Galfimbul 45104346114.2 GB 0 0 1531740661

14:31

16-Июл-18

Зарубежные фильмы 2016-2018 (Новинки зарубежного кино) ·%· Смотри по сторонам / Better Watch Out (2016) BDRip 720p от HELLYWOOD | iTunes Galfimbul 30828097682.87 GB 0 0 1531377610

09:40

12-Июл-18

Зарубежные фильмы 2016-2018 (Новинки зарубежного кино) ·%· Смотри по сторонам / Better Watch Out (2016) BDRip-AVC | iTunes Galfimbul 21451634372 GB 0 0 1531330233

20:30

11-Июл-18

Зарубежные фильмы 2016-2018 (Новинки зарубежного кино) ·%· Смотри по сторонам / Better Watch Out (2016) BDRip 720p | iTunes Galfimbul 40091132913.73 GB 2 0 1531330222

20:30

11-Июл-18

Зарубежные фильмы 2016-2018 (Новинки зарубежного кино) ·%· Смотри по сторонам / Better Watch Out (2016) BDRip 1080p | iTunes Galfimbul 70085224706.53 GB 2 0 1531330210

20:30

11-Июл-18

Зарубежные фильмы 2016-2018 (Новинки зарубежного кино) ·· Смотри по сторонам / Better Watch Out (Крис Пековер) [2016 г., ужасы, триллер, комедия, HDRip] MVO | Синема УС Galfimbul 14592081921.36 GB 0 0 1512034197

12:29

30-Ноя-17

Зарубежные фильмы 2016-2018 (Новинки зарубежного кино) ·%· Смотри по сторонам / Лучше берегись / Better Watch Out (2016) BDRip-AVC от OlLanDGroup | iTunes Galfimbul 15228441211.42 GB 2 0 1531590011

20:40

14-Июл-18

Зарубежные фильмы 2016-2018 (Новинки зарубежного кино) ·%· Смотри по сторонам / Лучше берегись / Better Watch Out (Крис Пековер / Chris Peckover) [2016, Австралия, США, ужасы, триллер, BDRip] Dub (iTunes) Galfimbul 15629250561.46 GB 2 0 1531553414

10:30

14-Июл-18

Зарубежные фильмы 2016-2018 (Новинки зарубежного кино) ·%· Смотри по сторонам / Лучше берегись / Better Watch Out (2016) HDRip от Scarabey | iTunes Galfimbul 15860654081.48 GB 0 0 1531502416

20:20

13-Июл-18

Зарубежные фильмы 2016-2018 (Новинки зарубежного кино) ·%· Смотри по сторонам / Лучше берегись / Better Watch Out (2016) BDRip от ExKinoRay | iTunes Galfimbul 15255876441.42 GB 0 0 1531473607

12:20

13-Июл-18

Зарубежные фильмы 2016-2018 (Новинки зарубежного кино) ·%· Смотри по сторонам / Лучше берегись / Better Watch Out (2016) BDRip от MegaPeer | iTunes Galfimbul 781310122745 MB 0 0 1531382406

11:00

12-Июл-18

Зарубежные фильмы 2016-2018 (Новинки зарубежного кино) ·· Смотри по сторонам (Лучше берегись) / Better Watch Out (Крис Пековер) [2016, Триллер, Комедия, Ужасы, BDRip 720p] Galfimbul 30367435322.83 GB 0 0 1516385465

21:11

19-Янв-18

Зарубежные фильмы 2016-2018 (Новинки зарубежного кино) ·· Смотри по сторонам (Лучше берегись) / Better Watch Out (Крис Пековер) [2016, Триллер, Комедия, Ужасы, HDRip] Galfimbul 14375649281.34 GB 0 0 1516385438

21:10

19-Янв-18

Зарубежные фильмы 2016-2018 (Новинки зарубежного кино) ·· Смотри по сторонам (Лучше берегись) / Better Watch Out (Крис Пековер) [2016, Триллер, Комедия, Ужасы, BDRip 1080p] Galfimbul 83180820367.75 GB 0 0 1512405612

19:40

4-Дек-17

Зарубежные фильмы 2016-2018 (Новинки зарубежного кино) ·· Смотри по сторонам (Лучше берегись) / Better Watch Out (Крис Пековер) [2016, Триллер, Комедия, Ужасы, WEB-DL 1080p] BadBajo Galfimbul 35531987463.31 GB 0 0 1507872014

08:20

13-Окт-17

Еще никто не оставлял запись к записи скачать торрент Смотри по сторонам Better Watch Out . Будь первым!

!Обратная связь