Boruto: Naruto Next Generations | Queen of the Damned (2002) | Show Highlight Ryan's Team Gives Him the Ultimate Surprise Ryan can't go to China, so his team brought China to him! Watch Video

Скачать через торрент Девственница Джейн Jane the Virgin Фильм бесплатно в хорошем качестве torrent

Скачивайте на UnionPeer.org фильмы через торрент без регистрации. Новинки кино в хорошем качестве через торрент. На UnionPeer.org можно скачать через торрент фильмы 2014 и 2015 годов. Самые новые фильмы.

Скачать торрент Девственница Джейн Jane the Virgin бесплатно через .torrent фильм мультфильм сериал

Статистика раздачи
Размер:  38.97 GB   |    Зарегистрирован:  5 дней   |    .torrent скачан:  25 раз   |   
Раздают:  1  
   
загрузка...
 
Автор Сообщение

Galfimbul

avatar Galfimbul


Девственница Джейн / Jane the Virgin

Страна: США
Жанр: Комедия, драма, мелодрама
Продолжительность серии: 22 х ~ 00:43:00
Год выпуска: 2014-2015
Перевод: Профессиональный многоголосый

Режиссёр: Дебби Аллен, Ута Бризвитц, Эдвард Орнелас
В ролях: Джина Родригез, Андреа Наведо, Яэль Гробглас, Джастин Бальдони, Ивонн Колл, Бретт Дир, Хайме Камиль, Ази Тесфай, Энтони Мендес, Бриджет Риган, Присцилла Барнс, Дженна Ортега, Камилль Коллар, Дайан Герерро, Брайан ДаРе, Карло Рота, Яра Мартинес, Крис Корбин, Грег Коллинз, Дэвид Кастанеда

Описание: Джейн выросла под влиянием строгой латиноамериканской бабушки, которая с ранних лет учила внучку скромности и воздержанию. Даже став красивой молодой женщиной, она оставалась целомудренной и пресекала все неприличные поползновения своего жениха. Но обычный поход к гинекологу изменил всю жизнь Джейн. Она стала жертвой случайного искусственного оплодотворения! Мир перевернулся с ног на голову, и теперь ей предстоит принять сложное решение, разобраться с шокированной родней, познакомиться с биологическим отцом малыша и сделать еще много такого, о чем две недели назад она не могла и помыслить.



Качество: WEB-DL 1080p
Формат: MKV
Видео: MPEG-4 AVC, 1920x1080 [16:9], 23.976 fps, ~ 5800 Kbps
Аудио 1: [Русский] AC3, 48 kHz, 6 ch, 384 Kbps - Amedia
Аудио 2: [Английский] AC3, 48 kHz, 6 ch, 384 Kbps
Субтитры: Русские (Full), английские (Forced, SDH)
Релиз CasStudio - BenderBEST
ОбщееУникальный идентификатор : 90753490078432067433781885055732249523 (0x44467C855D228EA10B5A4AEF0E1F73B3)Полное имя : S:\The.Hollow.S01.1080p.WEB-DL.Rus.Eng_CasStudio\The.Hollow.S01E01.The.Room.1080p.WEB-DL.Rus.Eng_CasStudio.mkvФормат : MatroskaВерсия формата : Version 4 / Version 2Размер файла : 673 МбайтПродолжительность : 24 м.Режим общего битрейта : ПеременныйОбщий поток : 3896 Кбит/секНазвание фильма : The Hollow S01E01 The RoomДата кодирования : UTC 2018-06-12 07:03:58Программа кодирования : mkvmerge v24.0.0 ('Beyond The Pale') 64-bitБиблиотека кодирования : libebml v1.3.6 + libmatroska v1.4.9Обложка : YesAttachments : cover.jpg

ВидеоИдентификатор : 1Формат : AVCФормат/Информация : Advanced Video CodecПрофиль формата : [email protected]Параметр CABAC формата : ДаПараметр ReFrames формата : 3 кадраИдентификатор кодека : V_MPEG4/ISO/AVCПродолжительность : 24 м.Вид битрейта : ПеременныйБитрейт : 2870 Кбит/секМаксимальный битрейт : 4305 Кбит/секШирина : 1920 пикселейВысота : 1080 пикселейСоотношение сторон : 16:9Режим частоты кадров : ПостоянныйЧастота кадров : 23,976 (24000/1001) кадра/секЦветовое пространство : YUVСубдискретизация насыщенности : 4:2:0Битовая глубина : 8 битТип развёртки : ПрогрессивнаяБит/(Пиксели*Кадры) : 0.058Размер потока : 473 Мбайт (70%)Заголовок : MPEG-4 AVC @ 2870 kbpsБиблиотека кодирования : x264 core 148Настройки программы : cabac=1 / ref=3 / deblock=1:0:0 / analyse=0x1:0x111 / me=umh / subme=10 / psy=1 / psy_rd=1.00:0.00 / mixed_ref=1 / me_range=24 / chroma_me=1 / trellis=2 / 8x8dct=0 / cqm=0 / deadzone=21,11 / fast_pskip=1 / chroma_qp_offset=-2 / threads=6 / lookahead_threads=1 / sliced_threads=0 / nr=0 / decimate=1 / interlaced=0 / bluray_compat=0 / stitchable=1 / constrained_intra=0 / bframes=2 / b_pyramid=0 / b_adapt=2 / b_bias=0 / direct=3 / weightb=1 / open_gop=0 / weightp=2 / keyint=48 / keyint_min=25 / scenecut=0 / intra_refresh=0 / rc_lookahead=48 / rc=2pass / mbtree=1 / bitrate=2870 / ratetol=1.0 / qcomp=0.50 / qpmin=6 / qpmax=51 / qpstep=4 / cplxblur=20.0 / qblur=0.5 / vbv_maxrate=4305 / vbv_bufsize=5740 / nal_hrd=vbr / filler=0 / ip_ratio=1.40 / aq=1:1.00Default : ДаForced : Нет

Аудио #1Идентификатор : 2Формат : AC-3Формат/Информация : Audio Coding 3Расширение режима : CM (complete main)Параметр Endianness формата : BigИдентификатор кодека : A_AC3Продолжительность : 24 м.Вид битрейта : ПостоянныйБитрейт : 384 Кбит/секКаналы : 6 каналовРасположение каналов : Front: L C R, Side: L R, LFEЧастота : 48,0 КГцЧастота кадров : 31,250 кадров/сек (1536 spf)Метод сжатия : С потерямиРазмер потока : 66,3 Мбайт (10%)Заголовок : DD 5.1 @ 384 kbpsЯзык : RussianDefault : ДаForced : Нет

Аудио #2Идентификатор : 3Формат : AC-3Формат/Информация : Audio Coding 3Расширение режима : CM (complete main)Параметр Endianness формата : BigИдентификатор кодека : A_AC3Продолжительность : 24 м.Вид битрейта : ПостоянныйБитрейт : 384 Кбит/секКаналы : 6 каналовРасположение каналов : Front: L C R, Side: L R, LFEЧастота : 48,0 КГцЧастота кадров : 31,250 кадров/сек (1536 spf)Метод сжатия : С потерямиРазмер потока : 66,3 Мбайт (10%)Заголовок : DD 5.1 @ 384 kbpsЯзык : EnglishDefault : НетForced : Нет

Аудио #3Идентификатор : 4Формат : AC-3Формат/Информация : Audio Coding 3Расширение режима : CM (complete main)Параметр Endianness формата : BigИдентификатор кодека : A_AC3Продолжительность : 24 м.Вид битрейта : ПостоянныйБитрейт : 384 Кбит/секКаналы : 6 каналовРасположение каналов : Front: L C R, Side: L R, LFEЧастота : 48,0 КГцЧастота кадров : 31,250 кадров/сек (1536 spf)Метод сжатия : С потерямиРазмер потока : 66,3 Мбайт (10%)Заголовок : DD 5.1 @ 384 kbpsЯзык : EnglishDefault : НетForced : Нет

Текст #1Идентификатор : 5Формат : UTF-8Идентификатор кодека : S_TEXT/UTF8Идентификатор кодека/Информация : UTF-8 Plain TextПродолжительность : 22 м.Битрейт : 0 бит/секCount of elements : 4Размер потока : 137 байт (0%)Заголовок : SRT - ForcedЯзык : RussianDefault : ДаForced : Да

Текст #2Идентификатор : 6Формат : UTF-8Идентификатор кодека : S_TEXT/UTF8Идентификатор кодека/Информация : UTF-8 Plain TextПродолжительность : 22 м.Битрейт : 79 бит/секCount of elements : 335Размер потока : 13,2 Кбайт (0%)Заголовок : SRT - FullЯзык : RussianDefault : НетForced : Нет

Текст #3Идентификатор : 7Формат : UTF-8Идентификатор кодека : S_TEXT/UTF8Идентификатор кодека/Информация : UTF-8 Plain TextПродолжительность : 22 м.Битрейт : 62 бит/секCount of elements : 371Размер потока : 10,2 Кбайт (0%)Заголовок : SRT - Full SDHЯзык : EnglishDefault : НетForced : Нет


Трекер:  [ 11-Июл-2018 10:18 ]

  

Скачать .torrent

Размер .torrent файла 197 KB


Размер: 38.97 GB
Хэш (hash) релиза: f69a2f4b365ac3c2447978aef1e4571b69358da8
Подписка на обновления:

Торренты, похожие на Девственница Джейн Jane the Virgin скачать торрент

Форум Название Автор Размер S L Добавлен
Зарубежные сериалы ·%· Девственница Джейн / Jane the Virgin / Сезон: 2 / Серии: 1-22 из 22 (Дебби Аллен, Ута Бризвитц, Эдвард Орнелас) [2015-2016, США, комедия, драма, мелодрама WEB-DL 1080p] MVO (Amedia) + Original + Sub (Rus, Eng) Galfimbul 4490281224241.82 GB 0 0 1531295313

10:48

11-Июл-18

Еще никто не оставлял запись к записи скачать торрент Девственница Джейн Jane the Virgin . Будь первым!

!Обратная связь