OpenLoadHD | Seikimatsu Occult Gakuin | Sons of Liberty

Скачать через торрент Выходные в горах. Поселок Каменномостский Фильм бесплатно в хорошем качестве torrent

Скачивайте на UnionPeer.org фильмы через торрент без регистрации. Новинки кино в хорошем качестве через торрент. На UnionPeer.org можно скачать через торрент фильмы 2014 и 2015 годов. Самые новые фильмы.

Скачать торрент Выходные в горах. Поселок Каменномостский бесплатно через .torrent фильм мультфильм сериал

Статистика раздачи
Размер:  1.51 GB   |    Зарегистрирован:  8 дней   |    .torrent скачан:  19 раз   |   
Раздают:  1  
   
загрузка...
 
Автор Сообщение

Galfimbul

avatar Galfimbul


Выходные в горах. Поселок Каменномостский

Год выпуска: 2013
Страна: Россия
Студия: RTG TV
Жанр: документальный
Продолжительность: 00:25:46
Перевод: Не требуется
Режиссер: Алексей Старченко

Описание: Каменномостский - поселок, из которого начинаются туристические маршруты по красивейшим местам Кавказских гор. Поселок Каменномостский расположен в Майкопском районе Республики Адыгея в межгорной котловине, на берегу реки Белая. По количеству уникальных памятников природы Каменномостский превосходит признанные курорты юга России.

Тип релиза: HDTV 1080i
Контейнер: TS

Видео: AVC, PAL, 1920x1080, 16x9, 7774Кbps, 25fps
Аудио: Русский, MP2, 2Ch, 48KHz, 192kbps
ОбщееИдентификатор : 1 (0x1)Полное имя : H:\Выходные в горах. Поселок Каменномостский(RTGHD2013)new.tsФормат : MPEG-TSРазмер файла : 1,51 ГбайтПродолжительность : 25 м. 46 с.Режим общего битрейта : ПеременныйОбщий поток : 8382 Кбит/сек

ВидеоИдентификатор : 256 (0x100)Идентификатор меню : 1 (0x1)Формат : AVCФормат/Информация : Advanced Video CodecПрофиль формата : [email protected]Настройки формата : CABAC / 4 Ref FramesПараметр CABAC формата : ДаПараметр RefFrames формата : 4 кадраИдентификатор кодека : 27Продолжительность : 25 м. 46 с.Битрейт : 7774 Кбит/секШирина : 1920 пикселейВысота : 1080 пикселейСоотношение сторон : 16:9Частота кадров : 25,000 кадров/секЦветовое пространство : YUVСубдискретизация насыщенности : 4:2:0Битовая глубина : 8 битТип развёртки : ЧересстрочнаяМетод сохранения типа развёртки : Раздельные поляПорядок развёртки : Верхнее поле первоеБит/(Пиксели*Кадры) : 0.150Размер потока : 1,40 Гбайт (93%)Цветовой диапазон : LimitedОсновные цвета : BT.709Характеристики трансфера : BT.709Коэффициенты матрицы : BT.709

АудиоИдентификатор : 302 (0x12E)Идентификатор меню : 1 (0x1)Формат : MPEG AudioВерсия формата : Version 1Профиль формата : Layer 2Идентификатор кодека : 3Продолжительность : 25 м. 46 с.Вид битрейта : ПостоянныйБитрейт : 192 Кбит/секКаналы : 2 каналаЧастота : 48,0 КГцЧастота кадров : 41,667 кадра/сек (1152 SPF)Метод сжатия : С потерямиЗадержка видео : -80 мс.Размер потока : 35,4 Мбайт (2%)Язык : Russian


Трекер:  [ 10-Июл-2018 17:36 ]

  

Скачать .torrent

Размер .torrent файла 15 KB


Размер: 1.51 GB
Хэш (hash) релиза: ccb6b2235d93cfad20cac34607e4e617afb9d18d
Подписка на обновления:

Еще никто не оставлял запись к записи скачать торрент Выходные в горах. Поселок Каменномостский . Будь первым!

!Обратная связь