Robyn Malcolm | Lemale Et Hahalal | Free Episode Download

Скачать через торрент Экстремальный водный туризм на Северном Кавказе Фильм бесплатно в хорошем качестве torrent

Скачивайте на UnionPeer.org фильмы через торрент без регистрации. Новинки кино в хорошем качестве через торрент. На UnionPeer.org можно скачать через торрент фильмы 2014 и 2015 годов. Самые новые фильмы.

Скачать торрент Экстремальный водный туризм на Северном Кавказе бесплатно через .torrent фильм мультфильм сериал

Статистика раздачи
Размер:  1.89 GB   |    Зарегистрирован:  12 дней   |    .torrent скачан:  18 раз   |   
Раздают:  1  
   
загрузка...
 
Автор Сообщение

Galfimbul

avatar Galfimbul


Экстремальный водный туризм на Северном Кавказе

Год выпуска: 2013
Страна: Россия
Студия: RTG TV
Жанр: документальный
Продолжительность: 00:22:51
Перевод: Не требуется
Режиссер: Алексей Старченко

Описание: Северный Кавказ богат водными маршрутами для туристов. Одни позволяют совершить неспешные путешествия, другие - требуют профессиональных навыков и серьезной физической подготовки. История "обручения с водой" из уст профессиональных рафтеров, чьи жизни после знакомства с реками Кавказа изменились навсегда.

Тип релиза: HDTV 1080i
Контейнер: TS

Видео: AVC, PAL, 1920x1080, 16x9, 11Мбит/сек, 25fps
Аудио: Русский, MP2, 2Ch, 48KHz, 192kbps
ОбщееИдентификатор : 1 (0x1)Полное имя : H:\Экстремальный водный туризм на Северном Кавказе(RTG2013) (02).tsФормат : MPEG-TSРазмер файла : 1,89 ГбайтПродолжительность : 22 м. 51 с.Режим общего битрейта : ПеременныйОбщий поток : 11,8 Мбит/сек

ВидеоИдентификатор : 256 (0x100)Идентификатор меню : 1 (0x1)Формат : AVCФормат/Информация : Advanced Video CodecПрофиль формата : [email protected]Настройки формата : CABAC / 4 Ref FramesПараметр CABAC формата : ДаПараметр RefFrames формата : 4 кадраИдентификатор кодека : 27Продолжительность : 22 м. 51 с.Битрейт : 11,1 Мбит/секШирина : 1920 пикселейВысота : 1080 пикселейСоотношение сторон : 16:9Частота кадров : 25,000 кадров/секСтандарт вещания : ComponentЦветовое пространство : YUVСубдискретизация насыщенности : 4:2:0Битовая глубина : 8 битТип развёртки : ЧересстрочнаяМетод сохранения типа развёртки : Раздельные поляПорядок развёртки : Верхнее поле первоеБит/(Пиксели*Кадры) : 0.213Размер потока : 1,77 Гбайт (93%)Цветовой диапазон : LimitedОсновные цвета : BT.709Характеристики трансфера : BT.709Коэффициенты матрицы : BT.709

АудиоИдентификатор : 257 (0x101)Идентификатор меню : 1 (0x1)Формат : MPEG AudioВерсия формата : Version 1Профиль формата : Layer 2Идентификатор кодека : 3Продолжительность : 22 м. 51 с.Вид битрейта : ПостоянныйБитрейт : 192 Кбит/секКаналы : 2 каналаЧастота : 48,0 КГцЧастота кадров : 41,667 кадра/сек (1152 SPF)Метод сжатия : С потерямиРазмер потока : 31,4 Мбайт (2%)Язык : Russian


Трекер:  [ 10-Июл-2018 17:36 ]

  

Скачать .torrent

Размер .torrent файла 19 KB


Размер: 1.89 GB
Хэш (hash) релиза: 8f750d6773591d0aaa10938a377e5f5554adfd3c
Подписка на обновления:

Еще никто не оставлял запись к записи скачать торрент Экстремальный водный туризм на Северном Кавказе . Будь первым!

!Обратная связь