Fast & Furious 7 (2015) | Télécharger Part 3 | Ito Junji: Collection

Скачать через торрент Смешарики. Дежавю Фильм бесплатно в хорошем качестве torrent

Скачивайте на UnionPeer.org фильмы через торрент без регистрации. Новинки кино в хорошем качестве через торрент. На UnionPeer.org можно скачать через торрент фильмы 2014 и 2015 годов. Самые новые фильмы.

Скачать торрент Смешарики. Дежавю бесплатно через .torrent фильм мультфильм сериал

Статистика раздачи
Размер:  6.92 GB   |    Зарегистрирован:  9 дней   |    .torrent скачан:  75 раз   |   
Раздают:  3   Качают:  1  
   
загрузка...
 
Автор Сообщение

Galfimbul

avatar Galfimbul


Смешарики. Дежавю



[b]Год выхода:
2018
Жанр: Мультфильм, комедия, приключения, семейный
Страна: Россия
Перевод: Не требуется
Продолжительность: 01:25:03
Режиссер: Денис Чернов
Роли дублировали: Павел Деревянко, Антон Виноградов, Сергей Мардарь, Михаил Черняк, Владимир Постников, Светлана Письмиченко, Вадим Бочанов, Михаил Хрусталёв и др.

О фильме: Крош решает устроить незабываемый день рождения Копатыча — он обращается в агентство «Дежавю», которое обещает своим клиентам удивительные путешествия во времени. Но из-за несоблюдения условий договора всех смешариков раскидывает во времени, а Крошу придется собирать друзей по разным эпохам в компании своего второго «Я» — повзрослевшего и ворчливого Шорка, появившегося из-за временного парадокса.



Файл
Качество: BDRip 1080p
Видео: MPEG-4 AVC, 1920x804, 9500 kbps, 24,000 fps
Звук#1: русский, DTS 5.1, 48 kHz, 1509 kbps | Лицензия
Звук#2: русский, AC3 5.1, 48 kHz, 640 kbps | Лицензия
Субтитры: нет
General
Уникальный идентификатор : 177123166102170139173612193200711887833 (0x8540AE5259FCC351AE44F025CFCB6BD9)
Полное имя : F:TorrentSmeshariki2018BDRip1080p.mkv
Формат : Matroska
Версия формата : Version 4 / Version 2
Размер файла : 6.92 GiB
Продолжительность : 1 h 25 min
Общий поток : 11.6 Mb/s
Дата кодирования : UTC 2018-07-10 10:55:34
Программа кодирования : mkvmerge v9.5.0 ('Quiet Fire') 64bit
Библиотека кодирования : libebml v1.3.4 + libmatroska v1.4.5

Video
Идентификатор : 1
Формат : AVC
Формат/Информация : Advanced Video Codec
Профиль формата : [email protected]
Настройки формата : CABAC / 5 Ref Frames
Параметр CABAC формата : Yes
Параметр RefFrames формата : 5 frames
Идентификатор кодека : V_MPEG4/ISO/AVC
Продолжительность : 1 h 25 min
Битрейт : 9 500 kb/s
Ширина : 1 920 pixels
Высота : 804 pixels
Соотношение сторон : 2.40:1
Режим частоты кадров : Constant
Частота кадров : 24.000 FPS
Цветовое пространство : YUV
Субдискретизация насыщенности : 4:2:0
Битовая глубина : 8 bits
Тип развёртки : Progressive
Бит/(Пиксели*Кадры) : 0.256
Размер потока : 5.64 GiB (82%)
Библиотека кодирования : x264 core 155 r2901M 7d0ff22
Настройки программы : cabac=1 / ref=5 / deblock=1:-3:-3 / analyse=0x3:0x113 / me=umh / subme=11 / psy=1 / psy_rd=1.00:0.00 / mixed_ref=1 / me_range=48 / chroma_me=1 / trellis=2 / 8x8dct=1 / cqm=0 / deadzone=21,11 / fast_pskip=0 / chroma_qp_offset=-2 / threads=9 / lookahead_threads=2 / sliced_threads=0 / nr=0 / decimate=0 / interlaced=0 / bluray_compat=0 / constrained_intra=0 / bframes=10 / b_pyramid=2 / b_adapt=2 / b_bias=0 / direct=3 / weightb=1 / open_gop=0 / weightp=2 / keyint=240 / keyint_min=24 / scenecut=40 / intra_refresh=0 / rc_lookahead=120 / rc=2pass / mbtree=0 / bitrate=9500 / ratetol=1.0 / qcomp=0.70 / qpmin=0 / qpmax=69 / qpstep=4 / cplxblur=20.0 / qblur=0.5 / vbv_maxrate=50000 / vbv_bufsize=62500 / nal_hrd=none / filler=0 / ip_ratio=1.40 / pb_ratio=1.30 / aq=3:0.80
Default : Yes
Forced : No
Цветовой диапазон : Limited
Основные цвета : BT.709
Характеристики трансфера : BT.709
Коэффициенты матрицы : BT.709

Audio #1
Идентификатор : 2
Формат : DTS
Формат/Информация : Digital Theater Systems
Идентификатор кодека : A_DTS
Продолжительность : 1 h 25 min
Вид битрейта : Constant
Битрейт : 1 509 kb/s
Каналы : 6 channels
Расположение каналов : Front: L C R, Side: L R, LFE
Частота : 48.0 kHz
Частота кадров : 93.750 FPS (512 SPF)
Битовая глубина : 24 bits
Метод сжатия : Lossy
Размер потока : 918 MiB (13%)
Язык : Russian
Default : Yes
Forced : No

Audio #2
Идентификатор : 3
Формат : AC-3
Формат/Информация : Audio Coding 3
Идентификатор кодека : A_AC3
Продолжительность : 1 h 25 min
Вид битрейта : Constant
Битрейт : 640 kb/s
Каналы : 6 channels
Расположение каналов : Front: L C R, Side: L R, LFE
Частота : 48.0 kHz
Частота кадров : 31.250 FPS (1536 SPF)
Битовая глубина : 16 bits
Метод сжатия : Lossy
Размер потока : 389 MiB (5%)
Язык : Russian
Default : No
Forced : No

Menu
00:00:00.000 : en:Chapter 1
00:01:04.166 : en:Chapter 2
00:09:00.750 : en:Chapter 3
00:20:01.500 : en:Chapter 4
00:30:27.458 : en:Chapter 5
00:41:08.791 : en:Chapter 6
00:51:13.041 : en:Chapter 7
01:00:43.375 : en:Chapter 8
01:10:59.208 : en:Chapter 9
Источник http://BlaTor.org

Трекер:  [ 10-Июл-2018 16:20 ]

  

Скачать .torrent

Размер .torrent файла 18 KB


Размер: 6.92 GB
Хэш (hash) релиза: 102464c76ff503bfc611639dc56951d52af45894
Подписка на обновления:

Торренты, похожие на Смешарики. Дежавю скачать торрент

Форум Название Автор Размер S L Добавлен
Мультфильмы 2016-2018 (Новинки мультфильмов) ·%· Смешарики. Дежавю (2018) BDRemux 1080p от OlLanDGroup | Лицензия Galfimbul 1909067849517.78 GB 0 0 1531944029

23:00

18-Июл-18

Мультфильмы 2016-2018 (Новинки мультфильмов) ·%· Смешарики. Дежавю (2018) BDRip от ExKinoRay | Лицензия Galfimbul 15679633621.46 GB 0 0 1531942855

22:40

18-Июл-18

Мультфильмы 2016-2018 (Новинки мультфильмов) ·%· Смешарики. Дежавю (2018) Blu-ray 1080p | Лицензия Galfimbul 2143362245119.96 GB 2 0 1531940464

22:01

18-Июл-18

Мультфильмы 2016-2018 (Новинки мультфильмов) ·%· Смешарики. Дежавю (2018) HDRip от ExKinoRay | Лицензия Galfimbul 780847104745 MB 2 0 1531313411

15:50

11-Июл-18

Мультфильмы 2016-2018 (Новинки мультфильмов) ·%· Смешарики. Дежавю (2018) BDRip | Лицензия Galfimbul 15328538341.43 GB 0 0 1531228846

16:20

10-Июл-18

Мультфильмы 2016-2018 (Новинки мультфильмов) ·%· Смешарики. Дежавю (2018) BDRip-AVC | Лицензия Galfimbul 18121072941.69 GB 0 0 1531228837

16:20

10-Июл-18

Мультфильмы 2016-2018 (Новинки мультфильмов) ·%· Смешарики. Дежавю (2018) BDRip 720p | Лицензия Galfimbul 45606437384.25 GB 0 0 1531228819

16:20

10-Июл-18

Мультфильмы до 2016 ·· Смешарики. Дежавю (Денис Чернов) [2018, мультфильм, комедия, приключения, семейный, WEB-DLRip] Galfimbul 778788864743 MB 0 0 1528392740

20:32

7-Июн-18

Мультфильмы до 2016 ·· Смешарики. Дежавю (Денис Чернов) [2018, мультфильм, комедия, приключения, семейный, WEB-DLRip] Galfimbul 15626772481.46 GB 2 0 1528374654

15:30

7-Июн-18

Еще никто не оставлял запись к записи скачать торрент Смешарики. Дежавю . Будь первым!

!Обратная связь