Chapter 163 | David Sullivan | Secret Sister

Скачать через торрент Невероятный Халк 1966 Incredible Hulk 1966 Фильм бесплатно в хорошем качестве torrent

Скачивайте на UnionPeer.org фильмы через торрент без регистрации. Новинки кино в хорошем качестве через торрент. На UnionPeer.org можно скачать через торрент фильмы 2014 и 2015 годов. Самые новые фильмы.

Скачать торрент Невероятный Халк 1966 Incredible Hulk 1966 бесплатно через .torrent фильм мультфильм сериал

Статистика раздачи
Размер:  10.34 GB   |    Зарегистрирован:  10 дней   |    .torrent скачан:  26 раз   |   
Раздают:  1  
   
загрузка...
 
Автор Сообщение

Galfimbul

avatar Galfimbul



Невероятный Халк 1966 / Incredible Hulk 1966
The Complete Series

Год выпуска: 1 сентября – 1 декабря 1966
Страна: США
Жанр: Экшен, приключения
Продолжительность: 17 мин.
Режиссёр: Ральф Бакши, Чак Харритон, Грант Симмонс / Ralph Bakshi, Chan harrison, Grant SimmonsОписание:
Талантливый ученый-ядерщик Брюс Бэннер, наблюдая за испытаниями своей новой гамма-бомбы, случайно замечает подростка в зоне взрыва. Пытаясь спасти его он, стараниями своего помощника, а на самом деле шпиона, попадает под радиоактивное облучение. Чудом он остается жив, но в его организме происходят значительные изменения, за счет которых теперь всегда, подвергаясь стрессу, Брюс превращается в зеленого гиганта Халка. Но это еще полбеды… Теперь за ним охотятся его враги, чтобы использовать его способности в корыстных целях.
Аудиодорожка 01: AC3 | 48khz | 2ch | 192kb/s Профессиональный (многоголосый закадровый)
Аудиодорожка 02: AC3 | 48khz | 2ch | 192kb/s Оригинал (english)
Субтитры : английские, немецкие, голландские, шведские, датские, норвежские, финские
Разбивка на главы : Есть
Дополнительно : Реставрация: до и после

Качество: DVD-Remux
Формат: MKV
Видео кодек: MPEG2
Аудио кодек: AC3
Видео: MPEG-2 Video | PAL | 4:3 | 720x576 | 25.000 fps | 6003 Kbps/
Episode 1: The Origin of the Hulk, Enter the Gorgon, To Be a Man
Episode 2: Terror of the Toadmen, Bruce Banner: Wanted For Treason, Hulk Runs Amok
Episode 3: A Titan Rides the Train, The Horde of Humanoids, On the Rampage!
Episode 4: The Power of Dr. Banner, Where Strides the Behemoth, Back from the Dead
Episode 5: Micro Monsters, The Lair of the Leader, To Live Again
Episode 6: Brawn Against Brain, Captured At Last, Enter the Chameleon
Episode 7: Within this Monster Dwells a Man; Another World, Another Foe; The Wisdom of the Watcher
Episode 8: The Space Phantom, Sting of the Wasp, Exit the Hulk
Episode 9: Hulk vs. Metal Master, The Master Tests His Metal, Mind Over Metal
Episode 10: The Ringmaster, Captive of the Circus, The Grand Finale
Episode 11: Enter Tyrannus, Beauty & The Beast, They Dwell in the Depths
Episode 12: Terror of the T-Gun, I Against A World, Bruce Banner is the Hulk
Episode 13: The Man Called Boomerang; Hulk Intervenes; Less Than Monster, More Than Man
<div class="sp-wrap">
<div class="sp-head folded">Media info</div>
<div class="sp-body">

ОбщееУникальный идентификатор : 273265351733721027006340387000134704221 (0xCD94FE0BBF49EC187BCF517F35689C5D)Полное имя : D:\Ремуксы\[AORE] The Incredible Hulk 1966\01. The Origin Of The Hulk.mkvФормат : MatroskaВерсия формата : Version 4 / Version 2Размер файла : 811 МбайтПродолжительность : 17 м. 40 с.Режим общего битрейта : ПеременныйОбщий поток : 6414 Кбит/секДата кодирования : UTC 2018-07-09 07:15:55Программа кодирования : mkvmerge v23.0.0 ('The Bride Said No') 64-bitБиблиотека кодирования : libebml v1.3.6 + libmatroska v1.4.9

ВидеоИдентификатор : 1Формат : MPEG VideoВерсия формата : Version 2Профиль формата : [email protected]Настройки формата : CustomMatrix / BVOPПараметр BVOP формата : ДаПараметр матрицы формата : ВыборочнаяПараметр GOP формата : VariableСтруктура изображения : FrameИдентификатор кодека : V_MPEG2Идентификатор кодека/Информация : MPEG 1 or 2 VideoПродолжительность : 17 м. 40 с.Вид битрейта : ПеременныйБитрейт : 6003 Кбит/секМаксимальный битрейт : 9800 Кбит/секШирина : 720 пикселейВысота : 576 пикселейСоотношение сторон : 4:3Режим частоты кадров : ПостоянныйЧастота кадров : 25,000 кадров/секСтандарт вещания : PALЦветовое пространство : YUVСубдискретизация насыщенности : 4:2:0Битовая глубина : 8 битТип развёртки : ЧересстрочнаяПорядок развёртки : Верхнее поле первоеМетод сжатия : С потерямиБит/(Пиксели*Кадры) : 0.579Временной код первого кадра : 00:00:00:00Оригинал временного кода : Group of pictures headerGOP, открыто/закрыто : ОткрытоGOP, открыто/закрыто на первом кадре : ЗакрытоРазмер потока : 759 Мбайт (94%)Язык : EnglishDefault : НетForced : Нет

Аудио #1Идентификатор : 2Формат : AC-3Формат/Информация : Audio Coding 3Идентификатор кодека : A_AC3Продолжительность : 17 м. 40 с.Вид битрейта : ПостоянныйБитрейт : 192 Кбит/секКаналы : 2 каналаРасположение каналов : Front: L RЧастота : 48,0 КГцЧастота кадров : 31,250 кадров/сек (1536 SPF)Битовая глубина : 16 битМетод сжатия : С потерямиРазмер потока : 24,3 Мбайт (3%)Язык : RussianServiceKind/String : Complete MainDefault : ДаForced : Нет

Аудио #2Идентификатор : 3Формат : AC-3Формат/Информация : Audio Coding 3Идентификатор кодека : A_AC3Продолжительность : 17 м. 40 с.Вид битрейта : ПостоянныйБитрейт : 192 Кбит/секКаналы : 2 каналаРасположение каналов : Front: L RЧастота : 48,0 КГцЧастота кадров : 31,250 кадров/сек (1536 SPF)Битовая глубина : 16 битМетод сжатия : С потерямиРазмер потока : 24,3 Мбайт (3%)Язык : EnglishServiceKind/String : Complete MainDefault : НетForced : Нет

Текст #1Идентификатор : 4Формат : VobSubРежим смешивания : zlibИдентификатор кодека : S_VOBSUBИдентификатор кодека/Информация : Picture based subtitle format used on DVDsПродолжительность : 16 м. 49 с.Битрейт : 7975 бит/секElementCount : 252Размер потока : 983 Кбайт (0%)Язык : EnglishDefault : ДаForced : Нет

Текст #2Идентификатор : 5Формат : VobSubРежим смешивания : zlibИдентификатор кодека : S_VOBSUBИдентификатор кодека/Информация : Picture based subtitle format used on DVDsПродолжительность : 16 м. 55 с.Битрейт : 8188 бит/секElementCount : 255Размер потока : 1015 Кбайт (0%)Язык : GermanDefault : НетForced : Нет

Текст #3Идентификатор : 6Формат : VobSubРежим смешивания : zlibИдентификатор кодека : S_VOBSUBИдентификатор кодека/Информация : Picture based subtitle format used on DVDsПродолжительность : 16 м. 55 с.Битрейт : 7819 бит/секElementCount : 250Размер потока : 969 Кбайт (0%)Язык : DutchDefault : НетForced : Нет

Текст #4Идентификатор : 7Формат : VobSubРежим смешивания : zlibИдентификатор кодека : S_VOBSUBИдентификатор кодека/Информация : Picture based subtitle format used on DVDsПродолжительность : 16 м. 55 с.Битрейт : 6542 бит/секElementCount : 215Размер потока : 811 Кбайт (0%)Язык : SwedishDefault : НетForced : Нет

Текст #5Идентификатор : 8Формат : VobSubРежим смешивания : zlibИдентификатор кодека : S_VOBSUBИдентификатор кодека/Информация : Picture based subtitle format used on DVDsПродолжительность : 16 м. 55 с.Битрейт : 7963 бит/секElementCount : 255Размер потока : 987 Кбайт (0%)Язык : DanishDefault : НетForced : Нет

Текст #6Идентификатор : 9Формат : VobSubРежим смешивания : zlibИдентификатор кодека : S_VOBSUBИдентификатор кодека/Информация : Picture based subtitle format used on DVDsПродолжительность : 16 м. 55 с.Битрейт : 7916 бит/секElementCount : 255Размер потока : 981 Кбайт (0%)Язык : NorwegianDefault : НетForced : Нет

Текст #7Идентификатор : 10Формат : VobSubРежим смешивания : zlibИдентификатор кодека : S_VOBSUBИдентификатор кодека/Информация : Picture based subtitle format used on DVDsПродолжительность : 16 м. 55 с.Битрейт : 7286 бит/секElementCount : 247Размер потока : 903 Кбайт (0%)Язык : FinnishDefault : НетForced : Нет

Меню00:00:00.000 : en:Chapter 0100:06:13.240 : en:Chapter 0200:11:46.240 : en:Chapter 03
</div>
</div>
Информация о проекте:

Были использованы 2 DVD от Clear Vision. Ничего не пережималось и не кодировалось.
DVD-рип с русского изданияМои ремуксы


Трекер:  [ 10-Июл-2018 11:24 ]

  

Скачать .torrent

Размер .torrent файла 53 KB


Размер: 10.34 GB
Хэш (hash) релиза: 6a4eb6ced30d02f080f34b32f837f05e6abdcafa
Подписка на обновления:

Еще никто не оставлял запись к записи скачать торрент Невероятный Халк 1966 Incredible Hulk 1966 . Будь первым!

!Обратная связь