lumion 7 | Read more | خواطر 11

Скачать через торрент Sпарта Серии: 1 из 8 Фильм бесплатно в хорошем качестве torrent

Скачивайте на UnionPeer.org фильмы через торрент без регистрации. Новинки кино в хорошем качестве через торрент. На UnionPeer.org можно скачать через торрент фильмы 2014 и 2015 годов. Самые новые фильмы.

Скачать торрент Sпарта Серии: 1 из 8 бесплатно через .torrent фильм мультфильм сериал

Статистика раздачи
Размер:  2.13 GB   |    Зарегистрирован:  9 дней   |    .torrent скачан:  31 раз   |   
Раздают:  1  
   
загрузка...
 
Автор Сообщение

Galfimbul

avatar Galfimbul


Sпарта

Год выпуска: 2017
Производство: ПЦ "Среда"
Жанр: драма, детектив
Продолжительность: ~00:53:00 серия
Субтитры: нет

Режиссёр: Егор Баранов

В ролях: Александр Петров, Артём Ткаченко, Алиса Лозовская, Валерия Шкирандо, Олег Гаас, Яна Енжаева, Оксана Базилевич, Ольга Сутулова, Роман Агеев, Михаил Грубов, Филипп Горенштейн, Ян Гахарманов, Юлия Марченко, Марина Калецкая, Мария Смольникова, Алла Еминцева, Ольга Виниченко, Марина Даминева, Ольга Павлюкова

Описание: Безобидной лжи не бывает. Даже самая потаенная мысль рано или поздно пересекает границы души и оказывается в реальности настоящего времени. Представьте, что такая реальность материальна, она действительно существует, и ваши самые безжалостные фантазии находят в ней воплощение. Эта история о человеке, для которого власть, вседозволенность, безнаказанность слились воедино… «Sпарта» — это игра без правил, в которой виртуальное становится реальным.

Реклама: Нет.

Кинопоиск
Все раздачи сериала
Sample

Качество: HDTV 1080i - olegka7373 (GeneralFilm)
Формат: TS
Видео кодек: AVC
Аудио кодек: AC3, MP2
Видео: MPEG4 AVC Video, H264, 16:9, 1920x1080, 25 fps, ~4850 kbps, 0.094 bit/pixel
Аудио: AC3, 6 ch, 384 kbps, 16 bits, 48.0 KHz
Аудио 2: MP2, 2 ch, 192 kbps, 16 bits, 48.0 KHz
Раздача ведётся путём добавления новых серий, при каждом добавлении создаётся новый торрент. Чтобы начать докачку новой серии, пользователям необходимо сделать следующее:

- Остановить скачивание.
- Удалить старый торрент у себя из клиента (старые серии удалять не надо).
- Скачать новый торрент и запустить его у себя в клиенте вместо старого, при этом указать клиенту путь в старую папку куда и должно происходить скачивание новых серий.

Ваш клиент при этом должен произвести хеширование (проверку) старой папки (если не производит сам - помогите ему сделать это), и будет докачивать только те серии которых у вас ещё нет. Старые серии при этом не удаляются, а продолжают раздаваться!
Если вы уже удалили старые серии, то предотвратить повторную закачку старых серий можно, отжав галочку в соответствующих местах при запуске нового торрента. По возможности, желательно не удалять старые серии как можно дольше, чтобы релизер не столько продолжал раздавать старые серии, а смог сконцентрироваться на новых.
General
ID : 1 (0x1)
Complete name : D:\Sпарта.HDTV(1080i).GeneralFilm\01.Sпарта.HDTV(1080i).GeneralFilm.ts
Format : MPEG-TS
File size : 2.13 GiB
Duration : 53 min 18 s
Overall bit rate mode : Variable
Overall bit rate : 5 715 kb/s

Video
ID : 1904 (0x770)
Menu ID : 80 (0x50)
Format : AVC
Format/Info : Advanced Video Codec
Format profile : [email protected]
Format settings : CABAC / 3 Ref Frames
Format settings, CABAC : Yes
Format settings, ReFrames : 3 frames
Codec ID : 27
Duration : 53 min 18 s
Bit rate : 4 851 kb/s
Width : 1 920 pixels
Height : 1 080 pixels
Display aspect ratio : 16:9
Frame rate : 25.000 FPS
Standard : Component
Color space : YUV
Chroma subsampling : 4:2:0
Bit depth : 8 bits
Scan type : Interlaced
Scan type, store method : Separated fields
Scan order : Top Field First
Bits/(Pixel*Frame) : 0.094
Stream size : 1.81 GiB (85%)
Color range : Limited
Color primaries : BT.709
Transfer characteristics : BT.709
Matrix coefficients : BT.709

Audio #1
ID : 2904 (0xB58)
Menu ID : 80 (0x50)
Format : AC-3
Format/Info : Audio Coding 3
Codec ID : 6
Duration : 53 min 18 s
Bit rate mode : Constant
Bit rate : 384 kb/s
Channel(s) : 6 channels
Channel positions : Front: L C R, Side: L R, LFE
Sampling rate : 48.0 kHz
Frame rate : 31.250 FPS (1536 SPF)
Bit depth : 16 bits
Compression mode : Lossy
Delay relative to video : -120 ms
Stream size : 146 MiB (7%)
Language : Russian
Service kind : Complete Main

Audio #2
ID : 2905 (0xB59)
Menu ID : 80 (0x50)
Format : MPEG Audio
Format version : Version 1
Format profile : Layer 2
Codec ID : 3
Duration : 53 min 18 s
Bit rate mode : Constant
Bit rate : 192 kb/s
Channel(s) : 2 channels
Sampling rate : 48.0 kHz
Frame rate : 41.667 FPS (1152 SPF)
Compression mode : Lossy
Delay relative to video : -120 ms
Stream size : 73.2 MiB (3%)
Language : Russian


Трекер:  [ 10-Июл-2018 05:42 ]

  

Скачать .torrent

Размер .torrent файла 11 KB


Размер: 2.13 GB
Хэш (hash) релиза: dd568ada703d17395e955783eb21ae5c671a3304
Подписка на обновления:

Торренты, похожие на Sпарта Серии: 1 из 8 скачать торрент

Форум Название Автор Размер S L Добавлен
Российские сериалы ·%· Sпарта / Серии: 1 из 8 (Егор Баранов) [2017, драма, детектив, HDTVRip 720p] Galfimbul 14769724991.38 GB 0 0 1531190548

05:42

10-Июл-18

Российские сериалы ·%· Sпарта / Серии: 1 из 8 (Егор Баранов) [2017, драма, детектив, HDTVRip] Galfimbul 800231424763 MB 0 0 1531190539

05:42

10-Июл-18

Российские сериалы ·*· Sпарта / Серии: 1-7 из 8 (Егор Баранов) [2016,драма детектив, SATRip-AVC] aleksan55 48606979074.53 GB 0 0 1531149553

18:19

9-Июл-18

Еще никто не оставлял запись к записи скачать торрент Sпарта Серии: 1 из 8 . Будь первым!

!Обратная связь