Comédia | Kamen Rider Wizard BD Box | Umimonogatari: Anata ga Ite Kureta Koto

Скачать через торрент Ангелы Смерти Satsuriku no Tenshi бесплатно Аниме Все серии на русском torrent

Статистика раздачи
Размер:  354 MB   |    Зарегистрирован:  6 дней   |    .torrent скачан:  24 раза   |   
Раздают:  1  
   
загрузка...
 
Автор Сообщение

Galfimbul

avatar Galfimbul


Ангелы Смерти / Satsuriku no Tenshi / angels of death

Страна: Япония
Год выпуска: 2018
Жанр: Ужасы, триллер, психологическое
Тип: TV
Продолжительность: 16 эп ~24 мин.
Режиссер: Кавагути Кэйитиро
Студия:

Описание: Тринадцатилетняя девочка по имени Рэйчел просыпается в подвале здания, не помня, как она попала туда и не зная причин, по которым оказалась в таком затруднительном положении.
Блуждая по зданию в поисках выхода, девочка встречается с Заком — серийным убийцей с бандажом на лице и косой в руках. Отрешённая и лишённая любых стремлений к жизни, Рэйчел просит нового знакомого убить её. Они заключают контракт, по условиям которого Рэй выводит Зака из здания, а после тот убивает её.
Связь между ними углубляется, усиливаясь их сумасшедшим обещанием.
Как они оказались тут? Для каких целей? Что ждёт их в будущем?
Столкнувшись с неизбежной смертью, герои вместе ищут выход из запечатанного здания!
Субтитры фансаб-альянса Firegorn Team

Перевод: Aoi-Chan
Редактирование: TRAN'e
Оформление: Redgar-Firegorn
Качество: WEBRip
Тип релиза: Без хардсаба
Формат видео: MKV
Наличие линковки: Нет
Релиз/Автор рипа: [RH]
Видео: H.264 | 1280x720 | 1956 kb/s | 23.976 fps| 8 bit
Аудио JAP: AAC | 128 kb/s | 44.1 kHz | 2 ch
GeneralUnique ID : 235256053228319944689265984315156505175 (0xB0FCAAF1BC11602D9F8C5C073DDEA257)Complete name : D:\Раздачи\Satsuriku no Tenshi [720p]\[Firegorn Team] Satsuriku no Tenshi - 01 [720p].mkvFormat : MatroskaFormat version : Version 4 / Version 2File size : 354 MiBDuration : 23 min 40 sOverall bit rate : 2 090 kb/sMovie name : [RH] Satsuriku no Tenshi - 01 [WEB Hi444 720p AAC]Encoded date : UTC 2018-07-09 22:11:35Writing application : mkvmerge v8.8.0 ('Wind at my back') 64bitWriting library : libebml v1.3.3 + libmatroska v1.4.4Attachments : JakobCTT Regular_0.ttf / P22MayflowerSmooth_0.ttf

VideoID : 1Format : AVCFormat/Info : Advanced Video CodecFormat profile : High 4:4:4 [email protected] settings : CABAC / 16 Ref FramesFormat settings, CABAC : YesFormat settings, ReFrames : 16 framesCodec ID : V_MPEG4/ISO/AVCDuration : 23 min 40 sBit rate : 1 956 kb/sWidth : 1 280 pixelsHeight : 720 pixelsDisplay aspect ratio : 16:9Frame rate mode : ConstantFrame rate : 23.976 (24000/1001) FPSColor space : YUVChroma subsampling : 4:4:4Bit depth : 10 bitsScan type : ProgressiveBits/(Pixel*Frame) : 0.089Stream size : 331 MiB (94%)Title : Hi444 720p h.264Writing library : x264 core 155 r2901 7d0ff22Encoding settings : cabac=1 / ref=16 / deblock=1:-1:-1 / analyse=0x1:0x111 / me=umh / subme=10 / psy=1 / psy_rd=0.70:0.00 / mixed_ref=1 / me_range=32 / chroma_me=1 / trellis=2 / 8x8dct=0 / cqm=0 / deadzone=21,11 / fast_pskip=0 / chroma_qp_offset=1 / threads=9 / lookahead_threads=2 / sliced_threads=0 / nr=0 / decimate=0 / interlaced=0 / bluray_compat=0 / constrained_intra=0 / bframes=16 / b_pyramid=2 / b_adapt=2 / b_bias=0 / direct=3 / weightb=1 / open_gop=0 / weightp=2 / keyint=240 / keyint_min=24 / scenecut=40 / intra_refresh=0 / rc_lookahead=48 / rc=crf / mbtree=1 / crf=16.0 / qcomp=0.70 / qpmin=0 / qpmax=81 / qpstep=4 / ip_ratio=1.40 / aq=3:0.75Language : JapaneseDefault : YesForced : NoColor range : LimitedMatrix coefficients : BT.709

AudioID : 2Format : AACFormat/Info : Advanced Audio CodecFormat profile : LCCodec ID : A_AAC-2Duration : 23 min 40 sBit rate : 128 kb/sChannel(s) : 2 channelsChannel positions : Front: L RSampling rate : 44.1 kHzFrame rate : 43.066 FPS (1024 SPF)Compression mode : LossyStream size : 21.7 MiB (6%)Title : 2.0 SourceLanguage : JapaneseDefault : YesForced : No

TextID : 3Format : ASSCodec ID : S_TEXT/ASSCodec ID/Info : Advanced Sub Station AlphaDuration : 23 min 19 sBit rate : 2 985 b/sCount of elements : 1138Compression mode : LosslessStream size : 510 KiB (0%)Title : [Firegorn Team]Language : RussianDefault : YesForced : No

Menu00:00:00.000 : en:Prologue00:03:52.024 : en:Part A00:11:10.004 : en:Part B00:22:04.867 : en:ED00:23:34.999 : en:Preview
01 - Пожалуйста... Убей меня.
...5584078
• 1080 здесь 720.
Не забываем нажимать на кнопку "сказать спасибо" тем самым выражая свою благодарность!!!
Раздавать буду преимущественно с 7:00 до 00:00

Трекер:  [ 10-Июл-2018 01:30 ]

  

Скачать .torrent

Размер .torrent файла 14 KB


Размер: 354 MB
Хэш (hash) релиза: 30213311717fc043b947478b760e524bae1fa7d4
Подписка на обновления:

Торренты, похожие на Ангелы Смерти Satsuriku no Tenshi скачать торрент

Форум Название Автор Размер S L Добавлен
Аниме | HD Rips ·%· Ангелы Смерти / Satsuriku no Tenshi / Angels of Death [TV] [1 из 16] [Без хардсаба] [JAP+SUB] [2018, приключения, ужасы, триллер, психологическое, WEBRip] [1080p] Galfimbul 837476120799 MB 0 0 1530896474

20:01

6-Июл-18

Еще никто не оставлял запись к записи скачать торрент Ангелы Смерти Satsuriku no Tenshi . Будь первым!

!Обратная связь