Star Blazers 2199: Space Battleship Yamato | Knightfall | Stream Link 2

Скачать через торрент Живой свет с Дэвидом Аттенборо Attenboroughs Life That Glows Фильм бесплатно в хорошем качестве torrent

Скачивайте на UnionPeer.org фильмы через торрент без регистрации. Новинки кино в хорошем качестве через торрент. На UnionPeer.org можно скачать через торрент фильмы 2014 и 2015 годов. Самые новые фильмы.

Скачать торрент Живой свет с Дэвидом Аттенборо Attenboroughs Life That Glows бесплатно через .torrent фильм мультфильм сериал

Статистика раздачи
Размер:  13.04 GB   |    Зарегистрирован:  9 дней   |    .torrent скачан:  29 раз   |   
Раздают:  1  
   
загрузка...
 
Автор Сообщение

Galfimbul

avatar Galfimbul


Живой свет с Дэвидом Аттенборо / Attenborough's Life That Glows

Год выпуска: 2016
Страна: Австрия, Великобритания
Студия: Terra Mater Factual Studios, Ammonite Films
Жанр: Документальный
Продолжительность: 00:59:02
Перевод: Одноголосый закадровый (профессиональный / любительский)
Доп. инфо о переводе: СВ-Дубль / Ю. Онищенко
Русские субтитры: есть

Режиссер: Джо Лонкрейн / Joe Loncraine

Описание: Биолюминесценция — во многом загадочное явление. Учёные обнаруживают по всему миру множество удивительных живых существ, способных излучать свет. Открытие всё большего количества странных светящихся созданий порождает лишь большее количество вопросов. Почему, для чего и каким образом они производят этот свет? В последние годы учёные начали находить ответы на эти вопросы.

Доп. информация: Релиз:
и

Сэмпл: http://dropmefiles.com/9TooX

Тип релиза: BDRemux 1080i
Контейнер: MKV

Видео: 1920x1080 at 25.000 fps, MPEG-4 AVC, ~29.8 Mbps avg
Аудио: Русский: 48 kHz, AC3, 2/0 (L,R) ch, ~192.00 kbps avg | СВ-Дубль по заказу ГТРК "Культура" |
Аудио 2: Русский: 48 kHz, AC3, 2/0 (L,R) ch, ~192.00 kbps avg | Ю. Онищенко |
Формат субтитров: softsub (SRT)
ОбщееПолное имя : Attenboroughs.Life.That.Glows.2016.1080i.BDRemux.2xRus.Eng-BLUEBIRD.mkvФормат : MatroskaВерсия формата : Version 4 / Version 2Размер файла : 13,0 ГбайтПродолжительность : 59 м. 2 с.Режим общего битрейта : ПеременныйОбщий поток : 31,6 Мбит/секНазвание фильма : Attenborough's Life That Glows (2016)Дата кодирования : UTC 2018-07-09 14:44:54Программа кодирования : mkvmerge v8.0.0 ('Til The Day That I Die') 32bitБиблиотека кодирования : libebml v1.3.1 + libmatroska v1.4.2Обложка : YesAttachments : cover.jpg

ВидеоИдентификатор : 1Формат : AVCФормат/Информация : Advanced Video CodecПрофиль формата : [email protected]Настройки формата : CABAC / 4 Ref FramesПараметр CABAC формата : ДаПараметр RefFrames формата : 4 кадраСтруктура изображения : FrameИдентификатор кодека : V_MPEG4/ISO/AVCПродолжительность : 59 м. 2 с.Вид битрейта : ПеременныйБитрейт : 29,8 Мбит/секМаксимальный битрейт : 38,0 Мбит/секШирина : 1920 пикселейВысота : 1080 пикселейСоотношение сторон : 16:9Режим частоты кадров : ПостоянныйЧастота кадров : 25,000 кадров/секЦветовое пространство : YUVСубдискретизация насыщенности : 4:2:0Битовая глубина : 8 битТип развёртки : ЧересстрочнаяМетод сохранения типа развёртки : Чередующиеся поляПорядок развёртки : Верхнее поле первоеБит/(Пиксели*Кадры) : 0.575Размер потока : 12,3 Гбайт (94%)Заголовок : MPEG-4 AVC Video / 29999 kbps / 1080i / 25 fps / 16:9 / High Profile 4.1Язык : EnglishDefault : ДаForced : Нет

Аудио #1Идентификатор : 2Формат : AC-3Формат/Информация : Audio Coding 3Идентификатор кодека : A_AC3Продолжительность : 59 м. 1 с.Вид битрейта : ПостоянныйБитрейт : 192 Кбит/секКаналы : 2 каналаРасположение каналов : Front: L RЧастота : 48,0 КГцЧастота кадров : 31,250 кадров/сек (1536 SPF)Битовая глубина : 16 битМетод сжатия : С потерямиРазмер потока : 81,1 Мбайт (1%)Заголовок : СВ-Дубль AC3 Audio / 2.0 / 48 kHz / 192 kbps / 16-bitЯзык : RussianServiceKind/String : Complete MainDefault : ДаForced : Да

Аудио #2Идентификатор : 3Формат : AC-3Формат/Информация : Audio Coding 3Идентификатор кодека : A_AC3Продолжительность : 59 м. 1 с.Вид битрейта : ПостоянныйБитрейт : 192 Кбит/секКаналы : 2 каналаРасположение каналов : Front: L RЧастота : 48,0 КГцЧастота кадров : 31,250 кадров/сек (1536 SPF)Битовая глубина : 16 битМетод сжатия : С потерямиРазмер потока : 81,1 Мбайт (1%)Заголовок : Logos71 AC3 Audio / 2.0 / 48 kHz / 192 kbps / 16-bitЯзык : RussianServiceKind/String : Complete MainDefault : НетForced : Нет

Аудио #3Идентификатор : 4Формат : FLACФормат/Информация : Free Lossless Audio CodecИдентификатор кодека : A_FLACПродолжительность : 59 м. 1 с.Вид битрейта : ПеременныйБитрейт : 1427 Кбит/секКаналы : 2 каналаРасположение каналов : Front: L RЧастота : 48,0 КГцЧастота кадров : 11,719 кадров/сек (4096 SPF)Битовая глубина : 24 битРазмер потока : 603 Мбайт (5%)Заголовок : FLAC Audio / 2.0 / 48 kHz / 1,427 kbps / 24-bitБиблиотека кодирования : libFLAC 1.2.1 (UTC 2007-09-17)Язык : EnglishDefault : НетForced : Нет

Текст #1Идентификатор : 5Формат : UTF-8Идентификатор кодека : S_TEXT/UTF8Идентификатор кодека/Информация : UTF-8 Plain TextПродолжительность : 58 м. 31 с.Битрейт : 141 бит/секElementCount : 701Размер потока : 60,9 Кбайт (0%)Заголовок : SRT rusЯзык : RussianDefault : ДаForced : Нет

Текст #2Идентификатор : 6Формат : UTF-8Идентификатор кодека : S_TEXT/UTF8Идентификатор кодека/Информация : UTF-8 Plain TextПродолжительность : 58 м. 20 с.Битрейт : 73 бит/секElementCount : 690Размер потока : 31,6 Кбайт (0%)Заголовок : SRT engЯзык : EnglishDefault : НетForced : Нет

Меню00:00:00.000 : en:Chapter 100:09:02.200 : en:Chapter 200:17:07.760 : en:Chapter 300:28:42.960 : en:Chapter 400:40:21.400 : en:Chapter 500:50:57.720 : en:Chapter 600:58:31.040 : en:Chapter 7
Дневник съемок в дорожке с профпереводом представлен переводом от Ю.Онищенко, поскольку в ТВ версии его не демонстрировали.

Сохранены оригинальные чаптеры


Трекер:  [ 09-Июл-2018 21:36 ]

  

Скачать .torrent

Размер .torrent файла 65 KB


Размер: 13.04 GB
Хэш (hash) релиза: c0ae8966968e0de9fcf665467f8aa6c7168da6f8
Подписка на обновления:

Торренты, похожие на Живой свет с Дэвидом Аттенборо Attenboroughs Life That Glows скачать торрент

Форум Название Автор Размер S L Добавлен
Документальные фильмы и телепередачи ·· Живой свет с Дэвидом Аттенборо / Attenborough's Life That Glows (Джо Лонкрэйн / Joe Loncraine) [2016, документальный, научно-популярный, флора и фауна, HDTVRip] Galfimbul 704651264672 MB 0 0 1485109249

21:20

22-Янв-17

Еще никто не оставлял запись к записи скачать торрент Живой свет с Дэвидом Аттенборо Attenboroughs Life That Glows . Будь первым!

!Обратная связь