Borg McEnroe | John Gabriel Borkman | Atticus Robb

Скачать через торрент Сакральные игры Sacred Games Фильм бесплатно в хорошем качестве torrent

Скачивайте на UnionPeer.org фильмы через торрент без регистрации. Новинки кино в хорошем качестве через торрент. На UnionPeer.org можно скачать через торрент фильмы 2014 и 2015 годов. Самые новые фильмы.

Скачать торрент Сакральные игры Sacred Games бесплатно через .torrent фильм мультфильм сериал

Статистика раздачи
Размер:  4.79 GB   |    Зарегистрирован:  6 дней   |    .torrent скачан:  24 раза   |   
Раздают:  1  
   
загрузка...
 
Автор Сообщение

Galfimbul

avatar Galfimbul


Сакральные игры / Sacred Games
Год выпуска: 2018
Страна: Индия, США
Жанр: Драма, криминал
Продолжительность: 00:51:48
Перевод: Любительский (многоголосый закадровый) GostFilm
Режиссёр: Анураг Кашьяп, Викрамадитья Мотване
В ролях: Навазуддин Сиддикуи, Саиф Али Кхан, Нааз Норози, Анупурия Гоенка, Радхика Апте, Амир Башир, Раджшри Дешпанде, Гириш Диксит, Нирадж Каби, Люк Кенни
Описание: Современный Мумбаи погряз в коррупции и преступности, и честному человеку там места нет. Полицейский низкого ранга Сартадж Синкх страдает под грузом прошлого и от невыносимости настоящего, когда вдруг получает звонок от одного из самых разыскиваемых преступников Индии. Тот сообщает, что является бессмертным богом, а у Сартаджа есть шанс спасти Мумбаи, которому через 25 дней настанет конец.
Сэмпл: http://multi-up.com/1203406
Релиз от:
Качество: WEBRip 720p
Контейнер: MKV
Видео: MPEG-4 AVC, 1280x640, 25.000 fps, 1400 Kbps, 0.068 bits/pixel
Аудио 1: 44.1 KHz, AC3, 2 ch, 192 kbps | Rus
Аудио 2: 48 kHz, E-AC3, 6 ch, 192 kbps | Hindi
Субтитры: Английский
Реклама: Присутствует реклама. аудио (два раза, в начале и конце, по 12 сек.)
General

Complete name : Downloads\Sacred.Games.S01.720p.GostFilm\Sacred.Games.S01E01.720p.GostFilm.mkv
Format : Matroska
Format version : Version 4 / Version 2
File size : 656 MiB
Duration : 51mn 48s
Overall bit rate : 1 770 Kbps
Writing application : mkvmerge v22.0.0 ('At The End Of The World') 64-bit
Writing library : libebml v1.3.5 + libmatroska v1.4.8
DURATION : 00:51:18.235000000
NUMBER_OF_FRAMES : 88379
NUMBER_OF_BYTES : 73877628
_STATISTICS_WRITING_APP : mkvmerge v22.0.0 ('At The End Of The World') 64-bit
_STATISTICS_WRITING_DATE_UTC : 2018-07-07 19:35:23
_STATISTICS_TAGS : BPS DURATION NUMBER_OF_FRAMES NUMBER_OF_BYTES
Video #1
ID : 1
Format : AVC
Format/Info : Advanced Video Codec
Format profile : [email protected]
Format settings, CABAC : Yes
Format settings, ReFrames : 8 frames
Codec ID : V_MPEG4/ISO/AVC
Duration : 51mn 48s
Bit rate : 1 400 Kbps
Width : 1 280 pixels
Height : 640 pixels
Display aspect ratio : 2.000
Frame rate mode : Constant
Frame rate : 25.000 fps
Color space : YUV
Chroma subsampling : 4:2:0
Bit depth : 8 bits
Scan type : Progressive
Bits/(Pixel*Frame) : 0.068
Stream size : 501 MiB (76%)
Writing library : x264 core 155 r2901 7d0ff22
Encoding settings : cabac=1 / ref=8 / deblock=1:-1:-1 / analyse=0x3:0x133 / me=umh / subme=10 / psy=1 / psy_rd=1.00:1.50 / mixed_ref=1 / me_range=16 / chroma_me=1 / trellis=2 / 8x8dct=1 / cqm=0 / deadzone=21,11 / fast_pskip=1 / chroma_qp_offset=-6 / threads=20 / lookahead_threads=1 / sliced_threads=0 / nr=0 / decimate=0 / interlaced=0 / bluray_compat=0 / constrained_intra=0 / bframes=3 / b_pyramid=0 / b_adapt=2 / b_bias=0 / direct=3 / weightb=1 / open_gop=0 / weightp=2 / keyint=240 / keyint_min=1 / scenecut=288 / intra_refresh=0 / rc_lookahead=60 / rc=2pass / mbtree=1 / bitrate=1400 / ratetol=1.0 / qcomp=0.90 / qpmin=3 / qpmax=69 / qpstep=4 / cplxblur=20.0 / qblur=0.5 / ip_ratio=1.40 / aq=1:1.00
Language : Hindi
Default : Yes
Forced : No
Color primaries : BT.709
Transfer characteristics : BT.709
Matrix coefficients : BT.709
Color range : Limited
Audio #2
ID : 2
Format : AC-3
Format/Info : Audio Coding 3
Mode extension : CM (complete main)
Format settings, Endianness : Big
Codec ID : A_AC3
Duration : 51mn 48s
Bit rate mode : Constant
Bit rate : 192 Kbps
Channel(s) : 2 channels
Channel positions : Front: L R
Sampling rate : 44.1 KHz
Bit depth : 16 bits
Compression mode : Lossy
Stream size : 71.1 MiB (11%)
Title : GostFilm
Default : Yes
Forced : Yes
Audio #3
ID : 3
Format : E-AC-3
Format/Info : Audio Coding 3
Format settings, Endianness : Big
Codec ID : A_EAC3
Duration : 51mn 48s
Bit rate mode : Constant
Bit rate : 192 Kbps
Channel(s) : 6 channels
Channel positions : Front: L C R, Side: L R, LFE
Sampling rate : 48.0 KHz
Compression mode : Lossy
Stream size : 71.1 MiB (11%)
Language : Hindi
Default : No
Forced : No
Text #4
ID : 4
Format : UTF-8
Codec ID : S_TEXT/UTF8
Codec ID/Info : UTF-8 Plain Text
Language : English
Default : Yes
Forced : No
Предыдущие и альтернативные раздачи

Трекер:  [ 09-Июл-2018 21:18 ]

  

Скачать .torrent

Размер .torrent файла 13 KB


Размер: 4.79 GB
Хэш (hash) релиза: 4ec0f9771548a15bd2e66393c0f7d929de369ac2
Подписка на обновления:

Еще никто не оставлял запись к записи скачать торрент Сакральные игры Sacred Games . Будь первым!

!Обратная связь