Birds of Prey | C.O.P.S. | Lawn Road Color Precision 1.0.1 for Final Cut Pro X

Скачать через торрент Элементарно Elementary Фильм бесплатно в хорошем качестве torrent

Скачивайте на UnionPeer.org фильмы через торрент без регистрации. Новинки кино в хорошем качестве через торрент. На UnionPeer.org можно скачать через торрент фильмы 2014 и 2015 годов. Самые новые фильмы.

Скачать торрент Элементарно Elementary бесплатно через .torrent фильм мультфильм сериал

Статистика раздачи
Размер:  4.83 GB   |    Зарегистрирован:  6 дней   |    .torrent скачан:  27 раз   |   
Раздают:  1  
   
загрузка...
 
Автор Сообщение

Galfimbul

avatar Galfimbul


Элементарно / Elementary (GostFilm)

Год выпуска: 2018
Страна: США, CBS Television Studios, Hill of Beans Product
Жанр: Драма, криминал, детектив
Продолжительность: 44

Перевод: Профессиональный (многоголосый закадровый) GostFilm

Режиссёр: Джон Полсон, Эндрю Бернштейн, Сет Манн

В ролях: Джонни Ли Миллер, Люси Лью, Эйдан Куинн, Джон Майкл Хилл, Натали Дормер, Ато Эссонда, Линда Эмонд, Майкл Ден Деккер, Винни Джонс, Эрик Дженсен

Описание: Никаких каминов, скрипок и лондонских туманов. Америка, наше время. Холмс - не только гениальный сыщик, но и бывший наркоман. Ватсон - не просто женщина-доктор с пикантной внешностью Люси Лиу, но и неплохой аналитик. Вместе они могут горы свернуть. Но сейчас успешный детективный дуэт на грани распада. Смогут ли Холмс и Ватсон друг без друга?

Доп. информация: Сериал переведен и озвучен Творческим объединением GostFilm

Сэмпл: http://www.sendspace.com/

Качество: WEBRip
Формат: MP4
Видео: MPEG-4, 1500 Кбит/с, 720x400
Аудио: Русский (MP3, 2 ch, 320 Кбит/с)
Субтитры: Нет

Реклама:
Присутствует аудио-реклама.
eneral
Complete name : A:\Elementary.S06.400p.GostFilm\Elementary.S06E10.400p.GostFilm.avi
Format : AVI
Format/Info : Audio Video Interleave
File size : 511 MiB
Duration : 43mn 21s
Overall bit rate : 1 648 Kbps
Writing application : Lavf57.71.100

Video
ID : 1
Format : MPEG-4 Visual
Format profile : Advanced [email protected]
Format settings, BVOP : No
Format settings, QPel : No
Format settings, GMC : No warppoints
Format settings, Matrix : Default (H.263)
Codec ID : FMP4
Duration : 43mn 21s
Bit rate : 1 315 Kbps
Width : 720 pixels
Height : 400 pixels
Display aspect ratio : 16:9
Frame rate : 25.000 fps
Color space : YUV
Chroma subsampling : 4:2:0
Bit depth : 8 bits
Scan type : Progressive
Compression mode : Lossy
Bits/(Pixel*Frame) : 0.183
Stream size : 408 MiB (80%)
Writing library : Lavc57.89.100

Audio
ID : 0
Format : MPEG Audio
Format version : Version 1
Format profile : Layer 3
Mode : Joint stereo
Codec ID : 55
Codec ID/Hint : MP3
Duration : 43mn 21s
Bit rate mode : Constant
Bit rate : 320 Kbps
Channel(s) : 2 channels
Sampling rate : 48.0 KHz
Compression mode : Lossy
Stream size : 99.2 MiB (19%)
Alignment : Aligned on interleaves
Interleave, duration : 40 ms (1.00 video frame)
Предыдущие и альтернативные раздачи

Трекер:  [ 09-Июл-2018 20:48 ]

  

Скачать .torrent

Размер .torrent файла 13 KB


Размер: 4.83 GB
Хэш (hash) релиза: 3286d3c661867c0ecff1af40fc2e5aa8320688b0
Подписка на обновления:

Еще никто не оставлял запись к записи скачать торрент Элементарно Elementary . Будь первым!

!Обратная связь