Betsy Butoryak | The Handmaids Tale S02E12 Postpartum 720p HULU WEB-DL AAC2 0 H 264-NTb [eztv] | Show Clip Relive Ryan's Emotional Moment Relive Ryan's emotional final moment with Jen. Watch Video

Скачать порно через торрент Pia Carrot e Youkoso!! 2 DX Welcome to Pia Carrot!! 2 DX UnionPeer.org бесплатно онлайн HD качество

Скачать новое порно 2015, 2014 новинки через торрент UnionPeer.org

Порно торрент бесплатно ЮнионПир.орг

Статистика раздачи
Размер:  23.3 GB   |    Зарегистрирован:  7 дней   |    .torrent скачан:  17 раз   |   
Раздают:  1   Качают:  1  
   
загрузка...
 
Автор Сообщение

Galfimbul

avatar Galfimbul


Pia Carrot e Youkoso!! 2 DX
Piaキャロットへようこそ!! 2 DX
Welcome to Pia Carrot!! 2 DX

Год выпуска: 1999-2000
Жанр: romance, waitress
Серии: ep. 1-6 of 6
Продолжительность: 6*30mn
Цензура: Этти - легкая эротика

Режиссер: Andou Nobuetsu, Satou Jun
Автор оригинала: 稲村竜一
Студия: Kaneki Kaio, Kidani Takaaki, Nakanishi Takashi

Описание: * Based on a game by the same title, the animated version has new attractive characters added and focused more on romance theme in the story plot. A high school student, Kouji, decided to work part-time during his summer vacation on a family owned restaurant called Pia Carrot No. 2 Store. On his way to go to the interview, he literally bumped Azusa, which grant him a special place on top of Azusa hate list. Things are getting more complicated as apparently Azusa is also working at the same restaurant.

anidb

Доп. информация: Два издания: одно Animegroup, базирующееся на японксих дисках, второе английское переиздание.
RUS
Озвучка: Японская оригинальная
Озвучка: Русская любительская (одноголосая) мужская [Animegroup]

Качество видео: DVD5
Разрешение видео: 720-480
Формат видео: DVD Video
Видео: MPEG 2, 720-480, 4-3, 29.97 fps, ~9500 Kbps
Аудио1: jpn, AC-3, Stereo, 48.0 KHz, 192 Kbps
Аудио2: rus, AC-3, Stereo, 48.0 KHz, 192 Kbps
General
Complete name : VTS_01_1.VOB
Format : MPEG-PS
File size : 1 024 MiB
Duration : 14 min 7 s
Overall bit rate mode : Variable
Overall bit rate : 10.1 Mb/s

Video
ID : 224 (0xE0)
Format : MPEG Video
Format version : Version 2
Format profile : [email protected]
Format settings : CustomMatrix / BVOP
Format settings, BVOP : Yes
Format settings, Matrix : Custom
Format settings, GOP : M=3, N=15
Duration : 14 min 7 s
Bit rate mode : Variable
Bit rate : 9 552 kb/s
Maximum bit rate : 8 000 kb/s
Width : 720 pixels
Height : 480 pixels
Display aspect ratio : 4:3
Frame rate : 29.970 (30000/1001) FPS
Standard : NTSC
Color space : YUV
Chroma subsampling : 4:2:0
Bit depth : 8 bits
Scan type : Progressive
Compression mode : Lossy
Bits/(Pixel*Frame) : 0.922
Time code of first frame : 00:00:00:00
Time code source : Group of pictures header
GOP, Open/Closed : Open
GOP, Open/Closed of first frame : Closed
Stream size : 965 MiB (94%)

Audio #1
ID : 189 (0xBD)-128 (0x80)
Format : AC-3
Format/Info : Audio Coding 3
Muxing mode : DVD-Video
Duration : 4 s 0 ms
Bit rate mode : Constant
Bit rate : 192 kb/s
Channel(s) : 2 channels
Channel positions : Front: L R
Sampling rate : 48.0 kHz
Frame rate : 31.250 FPS (1536 SPF)
Bit depth : 16 bits
Compression mode : Lossy
Stream size : 93.8 KiB (0%)
Service kind : Complete Main

Audio #2
ID : 189 (0xBD)-129 (0x81)
Format : AC-3
Format/Info : Audio Coding 3
Muxing mode : DVD-Video
Duration : 4 s 0 ms
Bit rate mode : Constant
Bit rate : 192 kb/s
Channel(s) : 2 channels
Channel positions : Front: L R
Sampling rate : 48.0 kHz
Frame rate : 31.250 FPS (1536 SPF)
Bit depth : 16 bits
Compression mode : Lossy
Stream size : 93.8 KiB (0%)
Service kind : Complete Main

Menu

ENG
Озвучка: Японская оригинальная
Субтитры: Английские

Качество видео: DVD9
Разрешение видео: 720-480
Формат видео: DVD Video
Видео: MPEG 2, 720-480, 4-3, 29.97 fps, ~7200 Kbps
Аудио: jpn, AC-3, Stereo, 48.0 KHz, 224 Kbps
General
Unique ID : 162439658195366435237991206058436660591 (0x7A34BD7CECB3A662ABF0D8B33BC90D6F)
Complete name : title00eng.mkv
Format : Matroska
Format version : Version 2
File size : 1.58 GiB
Duration : 29 min 39 s
Overall bit rate mode : Variable
Overall bit rate : 7 619 kb/s
Encoded date : UTC 2018-07-09 16:16:18
Writing application : MakeMKV v1.6.10 win(x64-release)
Writing library : libmakemkv v1.6.10 (1.2.0/1.1.0) win(x64-release)

Video
ID : 1
Format : MPEG Video
Format version : Version 2
Format profile : [email protected]
Format settings : CustomMatrix / BVOP
Format settings, BVOP : Yes
Format settings, Matrix : Custom
Format settings, GOP : M=3, N=15
Format settings, picture structure : Frame
Codec ID : V_MPEG2
Codec ID/Info : MPEG 1 or 2 Video
Duration : 29 min 39 s
Bit rate mode : Variable
Bit rate : 7 244 kb/s
Maximum bit rate : 9 000 kb/s
Width : 720 pixels
Height : 480 pixels
Display aspect ratio : 4:3
Frame rate mode : Constant
Frame rate : 29.970 (30000/1001) FPS
Standard : NTSC
Color space : YUV
Chroma subsampling : 4:2:0
Bit depth : 8 bits
Scan type : Interlaced
Scan order : Bottom Field First
Compression mode : Lossy
Bits/(Pixel*Frame) : 0.699
Time code of first frame : 00:59:59:00
Time code source : Group of pictures header
GOP, Open/Closed : Open
GOP, Open/Closed of first frame : Closed
Stream size : 1.50 GiB (95%)
Language : English
Default : Yes
Forced : No
Color primaries : BT.601 NTSC
Transfer characteristics : BT.601
Matrix coefficients : BT.601

Audio
ID : 2
Format : AC-3
Format/Info : Audio Coding 3
Codec ID : A_AC3
Duration : 29 min 39 s
Bit rate mode : Constant
Bit rate : 224 kb/s
Channel(s) : 2 channels
Channel positions : Front: L R
Sampling rate : 48.0 kHz
Frame rate : 31.250 FPS (1536 SPF)
Bit depth : 16 bits
Compression mode : Lossy
Stream size : 47.5 MiB (3%)
Title : 2/0
Language : Japanese
Service kind : Complete Main
Default : Yes
Forced : No

Text
ID : 3
Format : VobSub
Codec ID : S_VOBSUB
Codec ID/Info : Picture based subtitle format used on DVDs
Language : English
Default : Yes
Forced : No

Menu
00:00:00.000 : en:Chapter 01
00:01:18.111 : en:Chapter 02
00:02:48.201 : en:Chapter 03
00:17:30.482 : en:Chapter 04
00:26:06.565 : en:Chapter 05
00:28:11.189 : en:Chapter 06
00:28:40.285 : en:Chapter 07


Трекер:  [ 09-Июл-2018 20:13 ]

  

Скачать .torrent

Размер .torrent файла 117 KB


Размер: 23.3 GB
Хэш (hash) релиза: 5e569de3568c6dae60cde5fa4a0a576082f95fc0

Еще никто не оставлял запись к записи скачать торрент Pia Carrot e Youkoso!! 2 DX Welcome to Pia Carrot!! 2 DX . Будь первым!

!Обратная связь