Прямая ссылка | Adventure | Math Metal

Скачать через торрент Скелет в шкафу Серии: 1 из ??? Фильм бесплатно в хорошем качестве torrent

Скачивайте на UnionPeer.org фильмы через торрент без регистрации. Новинки кино в хорошем качестве через торрент. На UnionPeer.org можно скачать через торрент фильмы 2014 и 2015 годов. Самые новые фильмы.

Скачать торрент Скелет в шкафу Серии: 1 из ??? бесплатно через .torrent фильм мультфильм сериал

Статистика раздачи
Размер:  363 MB   |    Зарегистрирован:  9 дней   |    .torrent скачан:  14 раз   |   
Раздают:  1  
   
загрузка...
 
Автор Сообщение

Galfimbul

avatar Galfimbul


Скелет в шкафу

Год выпуска: 2018
Производство: НТВ, ОТК
Жанр: детектив
Продолжительность: ~00:28:00 серия
Субтитры: нет

Режиссёр: Роман Иванов

В ролях: Алексей Субботин, Евгений Еськов, Светлана Фатина, Анастасия Тюфякина, Сергей Кириллов, Арсений Михеев

Описание: Сериал "Скелет в шкафу" — это городские истории из жизни обычных людей, которые волею судеб попали в неожиданную ситуацию: они ненароком узнали чью-то сокровенную тайну или их собственный секрет стал известен кому-то из близких. Каждая серия — отдельный рассказ, основанный на реальных событиях. Главные герои в каждом из эпизодов разные, но объединяют их похожие интриги, отчаянные попытки выпутаться из неловкой ситуации, кого-то выслеживают и обязательно в чем-то подозревают. Повествуя свою историю, главный герой вспоминает то, что с ним произошло, дает развернутые комментарии, записанные в формате селфи, и делится со зрителями своими переживаниями. Подобная форма восстанавливает цепочку событий, придает проекту форму откровенной исповеди и делает его более живым и эмоциональным.

Реклама: Нет.

Все раздачи сериала
Sample

Качество: WEBRip - Files-x
Формат: AVI
Видео кодек: XviD
Аудио кодек: AC3
Видео: 720x400 (1.80:1), 25 fps, XviD build 73 ~1600 kbps avg, 0.222 bit/pixel
Аудио: 48.0 kHz, AC3 Dolby Digital, 2/0 (L,R) ch, ~ 192 kbps
01 серия - Измена на миллион
02 серия - Любовь по расписанию
03 серия - Чужой каравай
04 серия - Дочка напрокат
05 серия - Сестры
Раздача ведётся путём добавления новых серий, при каждом добавлении создаётся новый торрент. Чтобы начать докачку новой серии, пользователям необходимо сделать следующее:

- Остановить скачивание.
- Удалить старый торрент у себя из клиента (старые серии удалять не надо).
- Скачать новый торрент и запустить его у себя в клиенте вместо старого, при этом указать клиенту путь в старую папку куда и должно происходить скачивание новых серий.

Ваш клиент при этом должен произвести хеширование (проверку) старой папки (если не производит сам - помогите ему сделать это), и будет докачивать только те серии которых у вас ещё нет. Старые серии при этом не удаляются, а продолжают раздаваться!
Если вы уже удалили старые серии, то предотвратить повторную закачку старых серий можно, отжав галочку в соответствующих местах при запуске нового торрента. По возможности, желательно не удалять старые серии как можно дольше, чтобы релизер не столько продолжал раздавать старые серии, а смог сконцентрироваться на новых.
General
Complete name : D:\Скелет в шкафу (2018) WEB-DLRip. Files-x\01. Скелет в шкафу.WEB-DLRip. Files-x.avi
Format : AVI
Format/Info : Audio Video Interleave
File size : 363 MiB
Duration : 28 min 12 s
Overall bit rate : 1 802 kb/s
Writing application : VirtualDubMod 1.5.10.3 | www.virtualdub-fr.org || (build 2550/release)
Writing library : VirtualDubMod build 2550/release

Video
ID : 0
Format : MPEG-4 Visual
Format profile : Advanced [email protected]
Format settings : BVOP1 / QPel
Format settings, BVOP : 1
Format settings, QPel : Yes
Format settings, GMC : No warppoints
Format settings, Matrix : Default (MPEG)
Codec ID : XVID
Codec ID/Hint : XviD
Duration : 28 min 12 s
Bit rate : 1 600 kb/s
Width : 720 pixels
Height : 400 pixels
Display aspect ratio : 16:9
Frame rate : 25.000 FPS
Color space : YUV
Chroma subsampling : 4:2:0
Bit depth : 8 bits
Scan type : Progressive
Compression mode : Lossy
Bits/(Pixel*Frame) : 0.222
Stream size : 323 MiB (89%)
Writing library : XviD 73

Audio
ID : 1
Format : AC-3
Format/Info : Audio Coding 3
Codec ID : 2000
Duration : 28 min 12 s
Bit rate mode : Constant
Bit rate : 192 kb/s
Channel(s) : 2 channels
Channel positions : Front: L R
Sampling rate : 48.0 kHz
Frame rate : 31.250 FPS (1536 SPF)
Bit depth : 16 bits
Compression mode : Lossy
Stream size : 38.7 MiB (11%)
Alignment : Split accross interleaves
Interleave, duration : 40 ms (1.00 video frame)
Interleave, preload duratio : 500 ms
Service kind : Complete Main


Трекер:  [ 09-Июл-2018 20:12 ]

  

Скачать .torrent

Размер .torrent файла 14 KB


Размер: 363 MB
Хэш (hash) релиза: 72f8ebf18d73a9d019ee70ee57715a6e3b319590
Подписка на обновления:

Еще никто не оставлял запись к записи скачать торрент Скелет в шкафу Серии: 1 из ??? . Будь первым!

!Обратная связь