Sean Hobin | Leukemia Headaches Manual Guide Pdf | The Chronicles Of ...

Скачать через торрент Острые предметы Sharp Objects Фильм бесплатно в хорошем качестве torrent

Скачивайте на UnionPeer.org фильмы через торрент без регистрации. Новинки кино в хорошем качестве через торрент. На UnionPeer.org можно скачать через торрент фильмы 2014 и 2015 годов. Самые новые фильмы.

Скачать торрент Острые предметы Sharp Objects бесплатно через .torrent фильм мультфильм сериал

Статистика раздачи
Размер:  760 MB   |    Зарегистрирован:  6 дней   |    .torrent скачан:  28 раз   |   
Раздают:  1  
   
загрузка...
 
Автор Сообщение

Galfimbul

avatar Galfimbul


ОСТРЫЕ ПРЕДМЕТЫ
Sharp Objects
Год выпуска: 2018
Страна: США
Жанр: Триллер, драма, детектив
Продолжительность: ~01:00:00
Перевод: Профессиональный (многоголосый закадровый) Студия «Кравец-Рекордз»
Режиссёр: Жан-Марк Валле
В ролях: Эми Адамс, Патриша Кларксон, Крис Мессина, Мэтт Крэйвен, Генри Черни, Мигель Сандовал, Сидни Свини
Описание: Криминального репортёра Камиллу Прикер выпускают из психиатрической клиники, в которой она пребывала по причине многолетнего причинения увечий самой себе. Она возвращается в свой родной город в штате Миссури для расследования убийств двух маленьких девочек, где её мать Адора заставляет Камиллу противостоять личным демонам
Доп. информация: Без рекламных ВидеоАудио вставок
Всем нетерпеливым, канал на отдачу маленький.
Ныть где сид, поддайте скорости не нужно. Не нравится - идите мимо, найдите Альтернативные раздачи, без негативных комментариев здесь.

Альтернативные раздачи
Сэмпл
Качество: WEBRip
Формат: AVI
Видео: XviD, 720x400 (16:9), 23,976 fps, ~1450 kbps
Аудио Rus.: MP3, 48 kHz, 2 ch, 128 kbps
Аудио Eng.: MP3, 48 kHz, 2 ch, 128 kbps
Субтитры: отсутствуют
Реклама: отсутствует
Полное имя                               : Sharp Objects.S01.WEBRip.RusEng.Kravec\Sharp Objects.S01E01.WEBRip.RusEng.Kravec.J.avi
Формат                                   : AVI
Формат/Информация                        : Audio Video Interleave
Размер файла                             : 760 Мбайт
Продолжительность                        : 1 ч. 1 м.
Общий поток                              : 1733 Кбит/сек
Программа кодирования                    : VirtualDubMod 1.5.10.3 (build 2550/release)
Библиотека кодирования                   : VirtualDubMod build 2550/release

Видео
Идентификатор                            : 0
Формат                                   : MPEG-4 Visual
Профиль формата                          : Advanced [email protected]
Настройки формата                        : BVOP1
Параметр BVOP формата                    : 1
Параметр QPel формата                    : Нет
Параметр GMC формата                     : Без точки перехода
Параметр матрицы формата                 : Default (H.263)
Идентификатор кодека                     : XVID
Идентификатор кодека/Подсказка           : XviD
Продолжительность                        : 1 ч. 1 м.
Битрейт                                  : 1463 Кбит/сек
Ширина                                   : 720 пикселей
Высота                                   : 400 пикселей
Соотношение сторон                       : 16:9
Частота кадров                           : 23,976 (24000/1001) кадра/сек
Цветовое пространство                    : YUV
Субдискретизация насыщенности            : 4:2:0
Битовая глубина                          : 8 бит
Тип развёртки                            : Прогрессивная
Метод сжатия                             : С потерями
Бит/(Пиксели*Кадры)                      : 0.212
Размер потока                            : 642 Мбайт (84%)
Библиотека кодирования                   : XviD 1.2.1 (UTC 2008-12-04)

Аудио #1
Идентификатор                            : 1
Формат                                   : MPEG Audio
Версия формата                           : Version 1
Профиль формата                          : Layer 3
Настройки формата                        : Joint stereo / MS Stereo
Режим                                    : Joint stereo
Расширение режима                        : MS Stereo
Идентификатор кодека                     : 55
Идентификатор кодека/Подсказка           : MP3
Продолжительность                        : 1 ч. 1 м.
Вид битрейта                             : Постоянный
Битрейт                                  : 128 Кбит/сек
Каналы                                   : 2 канала
Частота                                  : 48,0 КГц
Метод сжатия                             : С потерями
Размер потока                            : 56,2 Мбайт (7%)
Выравнивание                             : Соединение по промежуткам
Продолжительность промежутка             : 42  мс. (1,00 видеокадр)
Время предзагрузки промежутка            : 504  мс.

Аудио #2
Идентификатор                            : 2
Формат                                   : MPEG Audio
Версия формата                           : Version 1
Профиль формата                          : Layer 3
Настройки формата                        : Joint stereo / MS Stereo
Режим                                    : Joint stereo
Расширение режима                        : MS Stereo
Идентификатор кодека                     : 55
Идентификатор кодека/Подсказка           : MP3
Продолжительность                        : 1 ч. 1 м.
Вид битрейта                             : Постоянный
Битрейт                                  : 128 Кбит/сек
Каналы                                   : 2 канала
Частота                                  : 48,0 КГц
Метод сжатия                             : С потерями
Размер потока                            : 56,2 Мбайт (7%)
Выравнивание                             : Соединение по промежуткам
Продолжительность промежутка             : 42  мс. (1,00 видеокадр)
Время предзагрузки промежутка            : 504  мс.
Внимание! Раздача ведётся путём добавления новых серий; при каждом добавлении создаётся новый торрент. Чтобы начать докачку новой серии, пользователям необходимо сделать следующее:
(1) остановить скачивание,
(2) удалить старый торрент у себя из клиента (старые серии удалять не надо),
(3) скачать новый торрент и запустить его у себя в клиенте вместо старого, при этом указать клиенту путь в старую папку куда и должно происходить скачивание новых серий.

Ваш клиент при этом должен произвести хеширование (проверку) старой папки (если не производит сам - помогите ему сделать это), и будет докачивать только те серии которых у вас ещё нет. Старые серии при этом не удаляются, а продолжают раздаваться!

Eсли вы уже удалили старые серии, то предотвратить повторную закачку старых серий можно, отжав галочку в соответствующих местах при запуске нового торрента. По возможности, желательно не удалять старые серии как можно дольше чтобы релизёр не столько продолжал раздавать старые серии, а смог сконцентрироваться на новых.


Трекер:  [ 09-Июл-2018 17:48 ]

  

Скачать .torrent

Размер .torrent файла 15 KB


Размер: 760 MB
Хэш (hash) релиза: 68fce3f67cca302f004b49ab1f671800c694aa73
Подписка на обновления:

Торренты, похожие на Острые предметы Sharp Objects скачать торрент

Форум Название Автор Размер S L Добавлен
Зарубежные сериалы ·%· Острые предметы / Sharp Objects / Сезон: 1 / Серии: 1 из 8 (Жан-Марк Валле) [2018, США, триллер, драма, детектив, WEB-DLRip] MVO (Jaskier) + Original Galfimbul 890802176850 MB 0 0 1531520292

01:18

14-Июл-18

Зарубежные сериалы ·%· Острые предметы / Sharp Objects / Сезон: 1 / Серии: 1 из 8 (Жан-Марк Валле) [2018, США, триллер, драма, детектив., WEB-DL 720p] MVO (Jaskier) + Original + Sub Eng Galfimbul 13379034161.25 GB 0 0 1531484299

15:18

13-Июл-18

Зарубежные сериалы ·%· Острые предметы / Sharp Objects / Сезон: 1 / Серии: 1 из 8 (Жан-Марк Валле) [2018, США, триллер, драма, криминал, детектив., WEB-DLRip] MVO (Jaskier) + Original Galfimbul 787130368751 MB 2 0 1531484286

15:18

13-Июл-18

Зарубежные сериалы ·%· Острые предметы / Sharp Objects / Сезон: 1 / Серии: 1 из 8 (Жан-Марк Валле) [2018, США, Триллер, драма, криминал, детектив, WEB-DLRip] MVO (Amedia) + Original Galfimbul 11640934401.08 GB 0 0 1531397887

15:18

12-Июл-18

Зарубежные сериалы ·%· Острые предметы / Sharp Objects / Сезон: 1 / Серии: 1 из 8 (Жан-Марк Валле) [2018, США, триллер, драма, детектив, WEB-DLRip] DVO (Gears Media) + Original Galfimbul 890802176850 MB 0 0 1531239489

19:18

10-Июл-18

Зарубежные сериалы ·%· Острые предметы / Sharp Objects / Сезон: 1 / Серии: 1 из 8 (Жан-Марк Валле) [2018, США, триллер, драма, детектив, WEB-DL 720p] DVO (Gears Media) + Original Galfimbul 14580618381.36 GB 0 0 1531163911

22:18

9-Июл-18

Зарубежные сериалы ·%· Острые предметы / Sharp Objects / Сезон: 1 / Серии: 1 из 8 (Жан-Марк Валле) [2018, США, триллер, драма, детектив, WEB-DLRip] DVO (Gears Media) + Original Galfimbul 798241010761 MB 0 0 1531163897

22:18

9-Июл-18

Еще никто не оставлял запись к записи скачать торрент Острые предметы Sharp Objects . Будь первым!

!Обратная связь