Detective Psycho | Calendar Girl - Janvier Prix de la meilleure New Romance etrangère | The Night Shift

Скачать через торрент Питомцы Pets Фильм бесплатно в хорошем качестве torrent

Скачивайте на UnionPeer.org фильмы через торрент без регистрации. Новинки кино в хорошем качестве через торрент. На UnionPeer.org можно скачать через торрент фильмы 2014 и 2015 годов. Самые новые фильмы.

Скачать торрент Питомцы Pets бесплатно через .torrent фильм мультфильм сериал

Статистика раздачи
Размер:  27.49 GB   |    Зарегистрирован:  6 дней   |    .torrent скачан:  30 раз   |   
Раздают:  1  
   
загрузка...
 
Автор Сообщение

Galfimbul

avatar Galfimbul


Питомцы / Pets

Страна: США
Студия: Dalia Productions
Жанр: драма
Год выпуска: 1973
Продолжительность: 01:41:58

Перевод: Авторский (одноголосый закадровый) А. Дольский
Субтитры: английские
Оригинальная аудиодорожка: английский

Режиссер: Рафаэль Нуссбаум / Raphael Nussbaum

В ролях: Эд Бишоп, Джоан Блэкман, Кэндис Райалсон, Тери Гузман, Бретт Паркер, Мэтт Грин, Майк Картель, Кейти Стивенс, Роберто Контрерас, Берри Крёгер и др.

Описание: Красотка Бонни — девчонка, гуляющая сама по себе. Сбежавшая из дома, она с головой погружается во взрослую жизнь этого жестокого мира. Случайные знакомства с мужчинами, желающими её тело… Невольное участие в криминальной афере… Лесбийские связи с богатой вдовой… Невольное свидетельство убийства… А заканчивается всё тем, что за пределами человеческого воображения.



Сэмпл IMDB Кинопоиск



Доп. информация:
Заказ перевода - porvaliparus

Тип релиза: BDRemux 1080p (Pets.1973.1080p.BluRay.REMUX.AVC.DTS-HD.MA.1.0-EPSiLON)
Контейнер: MKV

Видео: AVC / 1920x1080 / 16:9 / 23.976 fps / 34908 Kbps / [email protected]
Аудио 1 Rus: DTS-HD MA / 96.0 KHz / 1.0 / 1821 kbps / 24 bit (DTS Core 48.0 KHz / 1.0 / 768 kbps / 24 bit) AVO / А. Дольский
Аудио 2 Eng: DTS-HD MA / 96.0 KHz / 1.0 / 1866 kbps / 24 bit (DTS Core 48.0 KHz / 1.0 / 768 kbps / 24 bit)
Формат субтитров: softsub (SRT)
ОбщееУникальный идентификатор : 187178888023745487184236333011633379518 (0x8CD157B0B6FC5E2B6C4A2B5E6A5B18BE)Полное имя : E:\porvaliparus.2018\Pets.1973.BDRemux.1080p.mkvФормат : MatroskaВерсия формата : Version 4 / Version 2Размер файла : 27,5 ГбайтПродолжительность : 1 ч. 41 м.Режим общего битрейта : ПеременныйОбщий поток : 38,6 Мбит/секНазвание фильма : Pets.1973.BDRemux.1080p-porvaliparusДата кодирования : UTC 2018-07-05 22:04:19Программа кодирования : mkvmerge v24.0.0 ('Beyond The Pale') 64-bitБиблиотека кодирования : libebml v1.3.6 + libmatroska v1.4.9

ВидеоИдентификатор : 1Формат : AVCФормат/Информация : Advanced Video CodecПрофиль формата : [email protected]Настройки формата : CABAC / 3 Ref FramesПараметр CABAC формата : ДаПараметр RefFrames формата : 3 кадраИдентификатор кодека : V_MPEG4/ISO/AVCПродолжительность : 1 ч. 41 м.Вид битрейта : ПеременныйБитрейт : 35,0 Мбит/секМаксимальный битрейт : 40,0 Мбит/секШирина : 1920 пикселейВысота : 1080 пикселейСоотношение сторон : 16:9Режим частоты кадров : ПостоянныйЧастота кадров : 23,976 (24000/1001) кадра/секСтандарт вещания : NTSCЦветовое пространство : YUVСубдискретизация насыщенности : 4:2:0Битовая глубина : 8 битТип развёртки : ПрогрессивнаяБит/(Пиксели*Кадры) : 0.704Размер потока : 24,9 Гбайт (90%)Заголовок : Pets.1973.BDRemux.1080pБиблиотека кодирования : x264pro - Adobe CS Exporter Plug-inНастройки программы : cabac=1 / ref=4 / deblock=1:-1:-1 / analyse=0x3:0x133 / me=umh / subme=10 / psy=1 / psy_rd=1.00:0.15 / mixed_ref=1 / me_range=24 / chroma_me=1 / trellis=2 / 8x8dct=1 / cqm=0 / deadzone=21,11 / fast_pskip=1 / chroma_qp_offset=-3 / threads=12 / lookahead_threads=2 / sliced_threads=0 / slices=4 / nr=0 / decimate=1 / interlaced=0 / bluray_compat=1 / constrained_intra=0 / bframes=3 / b_pyramid=1 / b_adapt=2 / b_bias=0 / direct=3 / weightb=1 / open_gop=0 / weightp=1 / keyint=24 / keyint_min=1 / scenecut=40 / intra_refresh=0 / rc_lookahead=24 / rc=2pass / mbtree=1 / bitrate=35000 / ratetol=1.0 / qcomp=0.60 / qpmin=0 / qpmax=69 / qpstep=4 / cplxblur=20.0 / qblur=0.5 / vbv_maxrate=40000 / vbv_bufsize=30000 / nal_hrd=vbr / ip_ratio=1.40 / aq=1:1.00Default : ДаForced : НетЦветовой диапазон : LimitedОсновные цвета : BT.709Характеристики трансфера : BT.709Коэффициенты матрицы : BT.709

Аудио #1Идентификатор : 2Формат : DTSФормат/Информация : Digital Theater SystemsПрофиль формата : MA / CoreИдентификатор кодека : A_DTSПродолжительность : 1 ч. 41 м.Вид битрейта : Переменный / ПостоянныйБитрейт : 1821 Кбит/сек / 768 Кбит/секКаналы : 1 каналРасположение каналов : Front: CЧастота : 96,0 КГц / 48,0 КГцЧастота кадров : 93,750 кадра/сек (512 SPF)Битовая глубина : 24 битМетод сжатия : Без потерь / LossyРазмер потока : 1,30 Гбайт (5%)Заголовок : AVO [А. Дольский]Язык : RussianDefault : ДаForced : Нет

Аудио #2Идентификатор : 3Формат : DTSФормат/Информация : Digital Theater SystemsПрофиль формата : MA / CoreИдентификатор кодека : A_DTSПродолжительность : 1 ч. 41 м.Вид битрейта : Переменный / ПостоянныйБитрейт : 1866 Кбит/сек / 768 Кбит/секКаналы : 1 каналРасположение каналов : Front: CЧастота : 96,0 КГц / 48,0 КГцЧастота кадров : 93,750 кадра/сек (512 SPF)Битовая глубина : 24 битМетод сжатия : Без потерь / LossyРазмер потока : 1,33 Гбайт (5%)Язык : EnglishDefault : НетForced : Нет

ТекстИдентификатор : 4Формат : UTF-8Идентификатор кодека : S_TEXT/UTF8Идентификатор кодека/Информация : UTF-8 Plain TextПродолжительность : 1 ч. 41 м.Битрейт : 57 бит/секElementCount : 1575Размер потока : 42,8 Кбайт (0%)Язык : EnglishDefault : НетForced : Нет

Меню00:00:00.000 : en:Chapter 100:21:36.796 : en:Chapter 200:42:06.023 : en:Chapter 301:01:17.674 : en:Chapter 401:21:20.376 : en:Chapter 5


Трекер:  [ 09-Июл-2018 14:18 ]

  

Скачать .torrent

Размер .torrent файла 69 KB


Размер: 27.49 GB
Хэш (hash) релиза: c1c2f4f16588372e12751d309dd72df7acbc9322
Подписка на обновления:

Еще никто не оставлял запись к записи скачать торрент Питомцы Pets . Будь первым!

!Обратная связь