Mobile Suit Gundam 00 | An Introduction to Western Philosophy | Quotidien d’un bipolaire

Скачать через торрент Питомцы Pets Фильм бесплатно в хорошем качестве torrent

Скачивайте на UnionPeer.org фильмы через торрент без регистрации. Новинки кино в хорошем качестве через торрент. На UnionPeer.org можно скачать через торрент фильмы 2014 и 2015 годов. Самые новые фильмы.

Скачать торрент Питомцы Pets бесплатно через .torrent фильм мультфильм сериал

Статистика раздачи
Размер:  12.44 GB   |    Зарегистрирован:  6 дней   |    .torrent скачан:  29 раз   |   
Раздают:  1  
   
загрузка...
 
Автор Сообщение

Galfimbul

avatar Galfimbul


Питомцы / Pets

Страна: США
Студия: Dalia Productions
Жанр: драма
Год выпуска: 1973
Продолжительность: 01:41:58

Перевод: Авторский (одноголосый закадровый) А. Дольский
Субтитры: английские
Оригинальная аудиодорожка: английский

Режиссер: Рафаэль Нуссбаум / Raphael Nussbaum

В ролях: Эд Бишоп, Джоан Блэкман, Кэндис Райалсон, Тери Гузман, Бретт Паркер, Мэтт Грин, Майк Картель, Кейти Стивенс, Роберто Контрерас, Берри Крёгер и др.

Описание: Красотка Бонни — девчонка, гуляющая сама по себе. Сбежавшая из дома, она с головой погружается во взрослую жизнь этого жестокого мира. Случайные знакомства с мужчинами, желающими её тело… Невольное участие в криминальной афере… Лесбийские связи с богатой вдовой… Невольное свидетельство убийства… А заканчивается всё тем, что за пределами человеческого воображения.



Сэмпл IMDB Кинопоиск



Тип релиза: BDRip 720p
Контейнер: MKV

Видео: AVC / 1280x690 / 16:9 / 23.976 fps / 14500 Kbps / [email protected]
Аудио 1 Rus: AC3 / 48.0 KHz / 1.0 / 192 kbps / А. Дольский
Аудио 2 Rus: FLAC / 96.0 KHz / 1.0 / 1384 kbps / 24 bit / А. Дольский
Аудио 3 Eng: FLAC / 96.0 KHz / 1.0 / 1388 kbps / 24 bit
Формат субтитров: softsub (SRT)
ОбщееУникальный идентификатор : 243717529076600689459899442288045722622 (0xB75A49E9B084E4410EB9B2EE9FDA0BFE)Полное имя : E:\porvaliparus.2018\Pets.1973.BDRip.720p.mkvФормат : MatroskaВерсия формата : Version 4 / Version 2Размер файла : 12,4 ГбайтПродолжительность : 1 ч. 41 м.Режим общего битрейта : ПеременныйОбщий поток : 17,5 Мбит/секНазвание фильма : Pets.1973.BDRip.720p-porvaliparusДата кодирования : UTC 2018-07-05 23:29:56Программа кодирования : mkvmerge v24.0.0 ('Beyond The Pale') 64-bitБиблиотека кодирования : libebml v1.3.6 + libmatroska v1.4.9

ВидеоИдентификатор : 1Формат : AVCФормат/Информация : Advanced Video CodecПрофиль формата : [email protected]Настройки формата : CABAC / 9 Ref FramesПараметр CABAC формата : ДаПараметр RefFrames формата : 9 кадровИдентификатор кодека : V_MPEG4/ISO/AVCПродолжительность : 1 ч. 41 м.Битрейт : 14,5 Мбит/секШирина : 1280 пикселейВысота : 690 пикселейСоотношение сторон : 1,85:1Режим частоты кадров : ПостоянныйЧастота кадров : 23,976 (24000/1001) кадра/секЦветовое пространство : YUVСубдискретизация насыщенности : 4:2:0Битовая глубина : 8 битТип развёртки : ПрогрессивнаяБит/(Пиксели*Кадры) : 0.685Размер потока : 10,3 Гбайт (83%)Заголовок : Pets.1973.BDRip.720pБиблиотека кодирования : x264 core 155 r2901 7d0ff22Настройки программы : cabac=1 / ref=9 / deblock=1:-3:-3 / analyse=0x3:0x133 / me=umh / subme=11 / psy=1 / psy_rd=1.00:0.10 / mixed_ref=1 / me_range=32 / chroma_me=1 / trellis=2 / 8x8dct=1 / cqm=0 / deadzone=21,11 / fast_pskip=0 / chroma_qp_offset=-3 / threads=12 / lookahead_threads=3 / sliced_threads=0 / nr=0 / decimate=1 / interlaced=0 / bluray_compat=0 / constrained_intra=0 / bframes=12 / b_pyramid=2 / b_adapt=2 / b_bias=0 / direct=3 / weightb=1 / open_gop=0 / weightp=2 / keyint=240 / keyint_min=24 / scenecut=40 / intra_refresh=0 / rc_lookahead=40 / rc=2pass / mbtree=0 / bitrate=14500 / ratetol=1.0 / qcomp=0.60 / qpmin=0 / qpmax=69 / qpstep=4 / cplxblur=20.0 / qblur=0.5 / vbv_maxrate=50000 / vbv_bufsize=62500 / nal_hrd=none / filler=0 / ip_ratio=1.40 / pb_ratio=1.30 / aq=1:0.80Default : ДаForced : Нет

Аудио #1Идентификатор : 2Формат : AC-3Формат/Информация : Audio Coding 3Идентификатор кодека : A_AC3Продолжительность : 1 ч. 41 м.Вид битрейта : ПостоянныйБитрейт : 192 Кбит/секКаналы : 1 каналРасположение каналов : Front: CЧастота : 48,0 КГцЧастота кадров : 31,250 кадров/сек (1536 SPF)Битовая глубина : 16 битМетод сжатия : С потерямиРазмер потока : 140 Мбайт (1%)Заголовок : AVO [А. Дольский]Язык : RussianServiceKind/String : Complete MainDefault : ДаForced : Нет

Аудио #2Идентификатор : 3Формат : FLACФормат/Информация : Free Lossless Audio CodecИдентификатор кодека : A_FLACПродолжительность : 1 ч. 41 м.Вид битрейта : ПеременныйБитрейт : 1384 Кбит/секКаналы : 1 каналРасположение каналов : Front: CЧастота : 96,0 КГцЧастота кадров : 23,438 кадра/сек (4096 SPF)Битовая глубина : 24 битРазмер потока : 1010 Мбайт (8%)Заголовок : AVO [А. Дольский]Библиотека кодирования : libFLAC 20080709 (UTC 2008-07-09)Язык : RussianDefault : НетForced : Нет

Аудио #3Идентификатор : 4Формат : FLACФормат/Информация : Free Lossless Audio CodecИдентификатор кодека : A_FLACПродолжительность : 1 ч. 41 м.Вид битрейта : ПеременныйБитрейт : 1388 Кбит/секКаналы : 1 каналРасположение каналов : Front: CЧастота : 96,0 КГцЧастота кадров : 23,438 кадра/сек (4096 SPF)Битовая глубина : 24 битРазмер потока : 1012 Мбайт (8%)Библиотека кодирования : libFLAC 1.2.1 (UTC 2007-09-17)Язык : EnglishDefault : НетForced : Нет

ТекстИдентификатор : 5Формат : UTF-8Идентификатор кодека : S_TEXT/UTF8Идентификатор кодека/Информация : UTF-8 Plain TextПродолжительность : 1 ч. 41 м.Битрейт : 57 бит/секElementCount : 1575Размер потока : 42,8 Кбайт (0%)Язык : EnglishDefault : НетForced : Нет

Меню00:00:00.000 : en:Chapter 100:21:36.796 : en:Chapter 200:42:06.023 : en:Chapter 301:01:17.674 : en:Chapter 401:21:20.376 : en:Chapter 5
<div class="sp-wrap">
<div class="sp-head folded">log x264</div>
<div class="sp-body">raw [info]: 1280x690p 1:1 @ 24000/1001 fps (cfr)
x264 [info]: using SAR=1/1
x264 [info]: using cpu capabilities: MMX2 SSE2Fast SSSE3 SSE4.2 AVX
x264 [info]: profile High, level 4.1

x264 [info]: frame I:946 Avg QP:15.91 size:191116
x264 [info]: frame P:27824 Avg QP:17.84 size:109520
x264 [info]: frame B:117903 Avg QP:20.10 size: 66638
x264 [info]: consecutive B-frames: 1.1% 1.6% 4.3% 15.7% 14.9% 37.4% 11.0% 5.6% 3.2% 2.3% 1.2% 1.0% 0.6%
x264 [info]: mb I I16..4: 9.7% 73.6% 16.7%
x264 [info]: mb P I16..4: 0.7% 36.8% 3.3% P16..4: 18.2% 25.8% 12.9% 2.1% 0.1% skip: 0.3%
x264 [info]: mb B I16..4: 0.1% 13.7% 0.5% B16..8: 32.0% 25.9% 6.8% direct:15.0% skip: 6.1% L0:41.4% L1:32.5% BI:26.1%
x264 [info]: 8x8 transform intra:93.0% inter:51.9%
x264 [info]: direct mvs spatial:97.1% temporal:2.9%
x264 [info]: coded y,uvDC,uvAC intra: 97.6% 90.1% 68.8% inter: 68.2% 45.3% 6.0%
x264 [info]: i16 v,h,dc,p: 17% 5% 32% 46%
x264 [info]: i8 v,h,dc,ddl,ddr,vr,hd,vl,hu: 11% 8% 16% 9% 12% 10% 10% 10% 12%
x264 [info]: i4 v,h,dc,ddl,ddr,vr,hd,vl,hu: 39% 5% 6% 7% 10% 9% 8% 8% 8%
x264 [info]: i8c dc,h,v,p: 40% 24% 20% 16%
x264 [info]: Weighted P-Frames: Y:11.6% UV:4.7%
x264 [info]: ref P L0: 34.9% 8.8% 18.8% 9.6% 8.2% 6.0% 5.7% 3.6% 3.8% 0.5% 0.0%
x264 [info]: ref B L0: 67.1% 13.9% 7.4% 4.1% 3.0% 2.5% 1.5% 0.4%
x264 [info]: ref B L1: 92.9% 7.1%
x264 [info]: kb/s:14496.10

x264 [total]: encoded 146673 frames, 4.11 fps, 14496.10 kb/s
...5584189
</div>
</div>

Трекер:  [ 09-Июл-2018 14:18 ]

  

Скачать .torrent

Размер .torrent файла 31 KB


Размер: 12.44 GB
Хэш (hash) релиза: 41ba9d4ec5434632c9b47f667097b1b7e47bb552
Подписка на обновления:

Еще никто не оставлял запись к записи скачать торрент Питомцы Pets . Будь первым!

!Обратная связь