Orphan Black | Itazura na Kiss | Scarica APK

Скачать через торрент Полумиры Halfworlds Фильм бесплатно в хорошем качестве torrent

Скачивайте на UnionPeer.org фильмы через торрент без регистрации. Новинки кино в хорошем качестве через торрент. На UnionPeer.org можно скачать через торрент фильмы 2014 и 2015 годов. Самые новые фильмы.

Скачать торрент Полумиры Halfworlds бесплатно через .torrent фильм мультфильм сериал

Статистика раздачи
Размер:  2.03 GB   |    Зарегистрирован:  7 дней   |    .torrent скачан:  30 раз   |   
Раздают:  1  
   
загрузка...
 
Автор Сообщение

Galfimbul

avatar Galfimbul


Полумиры | Halfworlds

Год выпуска: 2015
Страна: Индонезия
Жанр: ужасы, фэнтези, триллер, детектив
Продолжительность: ~00:32:00

Перевод: Любительский (двухголосый закадровый) ViruseProject

Режиссёр: Джоко Анвар, Экачай Уэкронгтам
В ролях: Айтор Луна, Хорди Агилар, Пабло Дерки, Мишель Хеннер, Даниэль Грао, Оскар Рабадан, Веки Г. Велилья, Пабло Олевски, Хинес Гарсия Мильян, Нора Навас и др.

Описание: С давних времен на шумных улицах Джакарты сосуществовали два параллельных мира: мир людей и мир кровожадных мифологических существ. Этим существам, демитам, принимающим человеческий облик, веками удавалось скрываться благодаря влиятельному семейству смертных. Загадочное сверхъестественное событие под названием Дар откроет для смертных этот скрытый мир. Накануне дня Дара молодая художница Сара неожиданно оказывается в эпицентре событий. Когда демиты узнают, кто на самом деле эта Сара, и что она должна сделать, возникает неминуемый конфликт, который поставит под угрозу равновесие между этими двумя мирами.

Качество: HDTVRip
Контейнер: AVI
Видео: 720x400 (1.80:1), 23.976 fps, DivX Codec 4.x ~1035 kbps avg, 0.15 bit/pixel
Аудио: 48 kHz, AAC, 2/0 (L,R) ch, 192 kb/s
Субтитры: нет

Реклама: В аудио в начале и конце по 12 секунд.

General
Complete name : E:\Halfworlds.S01E01.400p.WEB-DL.ViruseProject.avi
Format : AVI
Format/Info : Audio Video Interleave
File size : 280 MiB
Duration : 31 min 35 s
Overall bit rate : 1 240 kb/s
Writing application : Lavf57.71.100

Video
ID : 0
Format : MPEG-4 Visual
Format profile : Advanced [email protected]
Format settings, BVOP : 2
Format settings, QPel : No
Format settings, GMC : No warppoints
Format settings, Matrix : Default (MPEG)
Codec ID : DIVX
Codec ID/Info : Project Mayo
Codec ID/Hint : DivX 4
Duration : 31 min 34 s
Bit rate : 1 036 kb/s
Width : 720 pixels
Height : 400 pixels
Display aspect ratio : 16:9
Frame rate : 23.976 (24000/1001) FPS
Color space : YUV
Chroma subsampling : 4:2:0
Bit depth : 8 bits
Scan type : Progressive
Compression mode : Lossy
Bits/(Pixel*Frame) : 0.150
Stream size : 234 MiB (83%)
Writing library : XviD 67

Audio
ID : 1
Format : MPEG Audio
Format version : Version 1
Format profile : Layer 3
Mode : Joint stereo
Mode extension : MS Stereo
Codec ID : 55
Codec ID/Hint : MP3
Duration : 31 min 35 s
Bit rate mode : Constant
Bit rate : 192 kb/s
Channel(s) : 2 channels
Sampling rate : 48.0 kHz
Compression mode : Lossy
Stream size : 43.4 MiB (15%)
Alignment : Aligned on interleaves
Interleave, duration : 24 ms (0.58 video frame)
Title : ViruseProject
Writing library : LAME3.100
Предыдущие и альтернативные раздачи

Трекер:  [ 09-Июл-2018 12:48 ]

  

Скачать .torrent

Размер .torrent файла 11 KB


Размер: 2.03 GB
Хэш (hash) релиза: ef9e5ecccfc8feef3eee71cebb0634a715808369
Подписка на обновления:

Еще никто не оставлял запись к записи скачать торрент Полумиры Halfworlds . Будь первым!

!Обратная связь