2 osób ma urodziny | Temporada 3 | The Looming Tower HDTV

Скачать через торрент Богомол La Mante Фильм бесплатно в хорошем качестве torrent

Скачивайте на UnionPeer.org фильмы через торрент без регистрации. Новинки кино в хорошем качестве через торрент. На UnionPeer.org можно скачать через торрент фильмы 2014 и 2015 годов. Самые новые фильмы.

Скачать торрент Богомол La Mante бесплатно через .torrent фильм мультфильм сериал

Статистика раздачи
Размер:  4.86 GB   |    Зарегистрирован:  7 дней   |    .torrent скачан:  37 раз   |   
Раздают:  1  
   
загрузка...
 
Автор Сообщение

Galfimbul

avatar Galfimbul


Богомол | La Mante

Год выпуска: 2017
Страна: Франция
Жанр: триллер, драма, криминал
Продолжительность: ~00:55:00

Перевод: Любительский (двухголосый закадровый) ViruseProject

Режиссёр: Александр Лорен
В ролях: Кароль Буке, Фред Тесто, Мэнон Азем, Паскаль Демолон, Фредерик Бель, Жак Вебер, Робинсон Стевенен, Элоди Наварр, Серж Рябукин, Жюльен Тортора и др.

Описание: Действие разворачивается в Париже в наши дни. Жанна Дебер по прозвищу Богомол — печально известная женщина-убийца, которая держала в страхе Францию больше 25 лет назад. По соглашению с полицией Жанна покидает свою камеру-одиночку, чтобы помогать в охоте на её подражателя, но при одном условии: если её сын, ставший теперь полицейским, будет работать с ней. У Дамьена не остаётся выбора — серийный убийца гуляет на свободе и может нанести удар в любой момент.

Качество: WEB-DLRip
Контейнер: AVI
Видео: 720x400 (1.80:1), 25 fps, XviD build 67 ~1960 kbps avg, 0.27 bit/pixel
Аудио: 48 kHz, MPEG Layer 3, 2 ch, ~192.00 kbps avg
Субтитры: нет

В аудио в начале и конце по 12 секунд.

General
Complete name : E:\La.Mante.S01E01.720p.WEB-DL.ViruseProject.avi
Format : AVI
Format/Info : Audio Video Interleave
File size : 812 MiB
Duration : 55 min 31 s
Overall bit rate mode : Variable
Overall bit rate : 2 043 kb/s
Writing application : Lavf57.71.100

Video
ID : 0
Format : MPEG-4 Visual
Format profile : Advanced [email protected]
Format settings, BVOP : 3
Format settings, QPel : No
Format settings, GMC : No warppoints
Format settings, Matrix : Default (MPEG)
Codec ID : XVID
Codec ID/Hint : XviD
Duration : 55 min 30 s
Bit rate : 1 890 kb/s
Width : 720 pixels
Height : 400 pixels
Display aspect ratio : 16:9
Frame rate : 25.000 FPS
Color space : YUV
Chroma subsampling : 4:2:0
Bit depth : 8 bits
Scan type : Progressive
Compression mode : Lossy
Bits/(Pixel*Frame) : 0.263
Stream size : 750 MiB (92%)
Writing library : XviD 67

Audio
ID : 1
Format : MPEG Audio
Format version : Version 1
Format profile : Layer 3
Mode : Joint stereo
Mode extension : MS Stereo
Codec ID : 55
Codec ID/Hint : MP3
Duration : 55 min 31 s
Bit rate mode : Variable
Bit rate : 192 kb/s
Channel(s) : 2 channels
Sampling rate : 48.0 kHz
Compression mode : Lossy
Stream size : 55.9 MiB (7%)
Alignment : Aligned on interleaves
Interleave, duration : 24 ms (0.60 video frame)
Title : ViruseProject
Предыдущие и альтернативные раздачи

Трекер:  [ 09-Июл-2018 12:48 ]

  

Скачать .torrent

Размер .torrent файла 25 KB


Размер: 4.86 GB
Хэш (hash) релиза: 2578674d11ad123078231978121d2763415e4b1d
Подписка на обновления:

Еще никто не оставлял запись к записи скачать торрент Богомол La Mante . Будь первым!

!Обратная связь