Il pane del ritorno | محمد صديق المنشاوي | The Fast and the Furious: Tokyo Drift (2006)

Скачать через торрент Ким Филби. Моя Прохоровка Фильм бесплатно в хорошем качестве torrent

Скачивайте на UnionPeer.org фильмы через торрент без регистрации. Новинки кино в хорошем качестве через торрент. На UnionPeer.org можно скачать через торрент фильмы 2014 и 2015 годов. Самые новые фильмы.

Скачать торрент Ким Филби. Моя Прохоровка бесплатно через .torrent фильм мультфильм сериал

Статистика раздачи
Размер:  2.03 GB   |    Зарегистрирован:  13 дней   |    .torrent скачан:  33 раза   |   
Раздают:  1  
   
загрузка...
 
Автор Сообщение

Galfimbul

avatar Galfimbul


Ким Филби. Моя Прохоровка

Страна: Россия
Студия: Телеканал "Россия", ВГТРК, НП "Формат"
Жанр: Документальный, биография
Год выпуска: 2018
Продолжительность: 00:45:30
Режиссёр: Екатерина Китайцева, Андрей Куренков

Описание: Ким Филби – английский аристократ, ставший советским разведчиком. Только за годы войны Ким Филби передал Москве 914 совершенно секретных документа. Филби и его друзья из знаменитой агентурной группы "Кембриджская пятерка" посылали сообщения стратегического характера. Они первыми сообщили в Москву о начале форсированных работ по созданию атомной бомбы в Англии и США, что подтолкнуло советское руководство к началу собственных работ по "атомному проекту". В годы войны информации "пятерки" придавалось особо важное значение – она тотчас попадала на стол Сталина. В 1943 году разведчики "пятерки" сыграли особую роль в подборе ключей в военной операции "Цитадель". В ответ на вопрос о том, что именно Ким Филби считает главным результатом своей работы и всей жизни, он неизменно произносил слово, которое понятно каждому жителю нашей страны: "Прохоровка". Своей главной заслугой он сам считал информацию, которую передал в Центр перед знаменитой битвой на Курской дуге, от исхода которой во многом зависел, собственно, и исход самой войны. Окончательно перебравшись в Советский Союз, Ким Филби встретил любовь всей жизни. Своими воспоминаниями о знаменитом разведчике делится его вдова Руфина Ивановна Пухова-Филби.

Доп. информация:
Автор релиза -
Источник - HDTV 1080i TS - моя запись с канала Россия-1 HD

Сэмпл: http://yadi.sk/i/CQ6BzWkC3Ywt4N



Рекламы нет!

Качество видео: HDTV 1080i
Формат видео: TS

Видео: MPEG-4, 1920x1080 (16:9), 25.000 fps, 5891 kbps, 0.114 bit/pixel
Аудио: Русский МР2, 48000 Гц, 2ch, 192 kbps
ОбщееИдентификатор : 1 (0x1)Полное имя : D:\Ким.Филби.Моя.Прохоровка.2018.HDTV.1080i-ylnian.tsФормат : MPEG-TSРазмер файла : 2,03 ГбайтПродолжительность : 45 м. 29 с.Режим общего битрейта : ПеременныйОбщий поток : 6402 Кбит/сек

ВидеоИдентификатор : 1178 (0x49A)Идентификатор меню : 1138 (0x472)Формат : AVCФормат/Информация : Advanced Video CodecПрофиль формата : [email protected]Настройки формата : CABAC / 4 Ref FramesПараметр CABAC формата : ДаПараметр RefFrames формата : 4 кадраИдентификатор кодека : 27Продолжительность : 45 м. 29 с.Битрейт : 5891 Кбит/секШирина : 1920 пикселейВысота : 1080 пикселейСоотношение сторон : 16:9Частота кадров : 25,000 кадров/секСтандарт вещания : ComponentЦветовое пространство : YUVСубдискретизация насыщенности : 4:2:0Битовая глубина : 8 битТип развёртки : ЧересстрочнаяМетод сохранения типа развёртки : Раздельные поляПорядок развёртки : Верхнее поле первоеБит/(Пиксели*Кадры) : 0.114Размер потока : 1,87 Гбайт (92%)Цветовой диапазон : LimitedОсновные цвета : BT.709Характеристики трансфера : BT.709Коэффициенты матрицы : BT.709

АудиоИдентификатор : 1179 (0x49B)Идентификатор меню : 1138 (0x472)Формат : MPEG AudioВерсия формата : Version 1Профиль формата : Layer 2Идентификатор кодека : 3Продолжительность : 45 м. 29 с.Вид битрейта : ПостоянныйБитрейт : 192 Кбит/секКаналы : 2 каналаЧастота : 48,0 КГцЧастота кадров : 41,667 кадра/сек (1152 SPF)Метод сжатия : С потерямиЗадержка видео : -40 мс.Размер потока : 62,5 Мбайт (3%)Язык : Russian


Трекер:  [ 09-Июл-2018 09:06 ]

  

Скачать .torrent

Размер .torrent файла 10 KB


Размер: 2.03 GB
Хэш (hash) релиза: 64c6db16ba029bdab227432375fa979b7000187c
Подписка на обновления:

Еще никто не оставлял запись к записи скачать торрент Ким Филби. Моя Прохоровка . Будь первым!

!Обратная связь