Ruperi Valu Marathi Song | En palaa takaisin koskaan, luulen | The Bad Sleep Well

Скачать порно через торрент Nurse Paradise Рай с Медсестичками UnionPeer.org бесплатно онлайн HD качество

Скачать новое порно 2015, 2014 новинки через торрент UnionPeer.org

Порно торрент бесплатно ЮнионПир.орг

Статистика раздачи
Размер:  91 MB   |    Зарегистрирован:  7 дней   |    .torrent скачан:  222 раза   |   
Раздают:  2  
   
загрузка...
 
Автор Сообщение

Galfimbul

avatar Galfimbul


Nurse Paradise / ナースパラダイス / Рай с Медсестичками

Год выпуска: 2016
Жанр: Nurse, Underwear, Hand Job, Blowjob, Naughty, Orgy Sex
Продолжительность: 00:23:59
Цензура: Есть во всех файлах

Язык: Японский
Озвучка: Оригинальная
Студия: @OZ

Описание: @OZ presents an ALL NEW 3DCG anime
featuring the RETURN of two beautiful, busty nurses!

Coquettish, amorous vision YUI MISAKI and
unsophisticated, prim and proper cutie HITOMI SAGARA
Two NURSES with their own unique SKILLS to tantalize and persecute
in pants-pitchingly AROUSING situations, including a THREESOME!

http://www.dlsite.com/ecchi-eng/work/=/product_id/RE187993.html

Official Site:
http://atoz.brightone-h.com/cg_pa_01.html

Качество видео: WEB-DL
Разрешение видео: 576p
Формат видео: MP4
Видео: MPEG4 Video (H264) 1024x576 30fps 500kbps
Аудио 1: JAP AAC 44100Hz stereo 21kbps
General
Complete name : Nurse_Paradise.mp4
Format : MPEG-4
Format profile : Base Media
Codec ID : isom
File size : 90.7 MiB
Duration : 23mn 58s
Overall bit rate : 529 Kbps
Writing application : Lavf57.25.100

Video
ID : 1
Format : AVC
Format/Info : Advanced Video Codec
Format profile : [email protected]
Format settings, CABAC : Yes
Format settings, ReFrames : 8 frames
Codec ID : avc1
Codec ID/Info : Advanced Video Coding
Duration : 23mn 58s
Bit rate : 500 Kbps
Width : 1 024 pixels
Height : 576 pixels
Display aspect ratio : 16:9
Frame rate mode : Constant
Frame rate : 30.000 fps
Color space : YUV
Chroma subsampling : 4:2:0
Bit depth : 8 bits
Scan type : Progressive
Bits/(Pixel*Frame) : 0.028
Stream size : 85.9 MiB (95%)
Writing library : x264 core 146 r2538 121396c
Encoding settings : cabac=1 / ref=8 / deblock=1:1:0 / analyse=0x1:0x111 / me=hex / subme=7 / psy=1 / psy_rd=0.40:0.00 / mixed_ref=1 / me_range=16 / chroma_me=1 / trellis=1 / 8x8dct=0 / cqm=0 / deadzone=21,11 / fast_pskip=1 / chroma_qp_offset=-2 / threads=12 / lookahead_threads=2 / sliced_threads=0 / nr=0 / decimate=1 / interlaced=0 / bluray_compat=0 / constrained_intra=0 / bframes=6 / b_pyramid=2 / b_adapt=1 / b_bias=0 / direct=1 / weightb=1 / open_gop=0 / weightp=2 / keyint=286 / keyint_min=27 / scenecut=40 / intra_refresh=0 / rc_lookahead=40 / rc=2pass / mbtree=1 / bitrate=500 / ratetol=1.0 / qcomp=0.60 / qpmin=10 / qpmax=51 / qpstep=4 / cplxblur=20.0 / qblur=0.5 / vbv_maxrate=20000 / vbv_bufsize=25000 / nal_hrd=none / filler=0 / ip_ratio=1.40 / aq=2:0.60

Audio
ID : 2
Format : AAC
Format/Info : Advanced Audio Codec
Format profile : HE-AAC / LC
Codec ID : 40
Duration : 23mn 58s
Bit rate mode : Constant
Bit rate : 21.7 Kbps
Channel count : 2 channels
Channel positions : Front: L R
Sampling rate : 44.1 KHz / 22.05 KHz
Compression mode : Lossy
Stream size : 3.73 MiB (4%)


Трекер:  [ 09-Июл-2018 05:33 ]

  

Скачать .torrent

Размер .torrent файла 14 KB


Размер: 91 MB
Хэш (hash) релиза: 33787804be67c56cda4f3ad71b399e10cec47dfa

Еще никто не оставлял запись к записи скачать торрент Nurse Paradise Рай с Медсестичками . Будь первым!

!Обратная связь