1x12 Ultraman Geed | Friends Appeal | Comments: 0

Скачать через торрент Леонардо: Миссия Мона Лиза Leo Da Vinci: Mission Mona Lisa Фильм бесплатно в хорошем качестве torrent

Скачивайте на UnionPeer.org фильмы через торрент без регистрации. Новинки кино в хорошем качестве через торрент. На UnionPeer.org можно скачать через торрент фильмы 2014 и 2015 годов. Самые новые фильмы.

Скачать торрент Леонардо: Миссия Мона Лиза Leo Da Vinci: Mission Mona Lisa бесплатно через .torrent фильм мультфильм сериал

Статистика раздачи
Размер:  1.14 GB   |    Зарегистрирован:  10 дней   |    .torrent скачан:  111 раз   |   
Раздают:  3  
   
загрузка...
 
Автор Сообщение

Galfimbul

avatar Galfimbul


Леонардо: Миссия Мона Лиза /Leo Da Vinci: Mission Mona Lisa

Год выхода: 2018
Жанр: мультфильм, приключения, семейный
Режиссер: Серджо Манфио
Роли озвучивали: Алекс Полидори, Эмануэла Ионика, Габриэль Патриарка, Арианна Виньоли, Джулио Бартоломеи, Роберто Драгетти, Франко Маннелла, Роберто Стокки, Давид Джарболино, Стефано Мондини

О фильме:
Леонардо живёт спокойной и мирной жизнью, посвятив себя изобретательству. Его друг Лоренцо во всём помогает товарищу и поддерживает во всех начинаниях, а вот прекрасная Джоконда насмехается над странными идеями Леонардо. Но вскоре в жизни девушки происходит несчастье — в ее доме происходит пожар, и она остается ни с чем. Однажды в их город забредает рассказчик, который упоминает о потерянном сокровище, которое ещё никому не удавалось найти. Ребята решают, что им повезёт, и отправляются в удивительное путешествие.



Страна: Италия
Студия: Gruppo Alcuni
Продолжительность: 01:18:57
Перевод: профессиональный (дублированный) лицензия

Формат: MKV
Качество: DVDRip-AVC
Видео: MPEG-4 AVC, [email protected] (2.40:1), 25.000 fps, 1611 Kbps, 0.209 bit/pixel
Аудио: 48 kHz, AC3, 5.1, 448 Kbps | Лицензия | RUS |

Сохранены чаптеры как на DVD
General
Unique ID : 196391836577720379212414551450128338693 (0x93BFB11FB104D97E9B0E842AE3B5CF05)
Complete name : D:Leo.Da.Vinci.Mission.Mona.Lisa.2018.DVDRip.AVC.ExKinoRay.mkv
Format : Matroska
Format version : Version 2
File size : 1.14 GiB
Duration : 1 h 18 min
Overall bit rate : 2 061 kb/s
Movie name : Leo Da Vinci: Mission Mona Lisa (2018) from ExKinoRay
Encoded date : UTC 2018-07-09 01:18:09
Writing application : mkvmerge v5.6.0 ('Kenya Kane') built on May 27 2012 16:44:04
Writing library : libebml v1.2.3 + libmatroska v1.3.0

Video
ID : 1
Format : AVC
Format/Info : Advanced Video Codec
Format profile : [email protected]
Format settings, CABAC : Yes
Format settings, ReFrames : 13 frames
Codec ID : V_MPEG4/ISO/AVC
Duration : 1 h 18 min
Bit rate : 1 611 kb/s
Width : 720 pixels
Height : 428 pixels
Display aspect ratio : 2.40:1
Frame rate mode : Constant
Frame rate : 25.000 FPS
Color space : YUV
Chroma subsampling : 4:2:0
Bit depth : 8 bits
Scan type : Progressive
Bits/(Pixel*Frame) : 0.209
Stream size : 888 MiB (76%)
Title : Enigma
Writing library : x264 core 152 r2851 ba24899
Encoding settings : cabac=1 / ref=13 / deblock=1:-2:-2 / analyse=0x3:0x113 / me=umh / subme=10 / psy=1 / psy_rd=1.00:0.00 / mixed_ref=1 / me_range=32 / chroma_me=1 / trellis=2 / 8x8dct=1 / cqm=0 / deadzone=21,11 / fast_pskip=0 / chroma_qp_offset=-2 / threads=12 / lookahead_threads=3 / sliced_threads=0 / nr=0 / decimate=0 / interlaced=0 / bluray_compat=0 / constrained_intra=0 / bframes=12 / b_pyramid=2 / b_adapt=2 / b_bias=0 / direct=3 / weightb=1 / open_gop=0 / weightp=2 / keyint=250 / keyint_min=25 / scenecut=40 / intra_refresh=0 / rc_lookahead=40 / rc=2pass / mbtree=0 / bitrate=1611 / ratetol=1.0 / qcomp=0.60 / qpmin=0 / qpmax=51 / qpstep=4 / cplxblur=20.0 / qblur=0.5 / vbv_maxrate=50000 / vbv_bufsize=62500 / nal_hrd=none / filler=0 / ip_ratio=1.30 / pb_ratio=1.20 / aq=1:1.00
Default : Yes
Forced : No
Color range : Limited
Color primaries : BT.601 PAL
Transfer characteristics : BT.470 System B, BT.470 System G
Matrix coefficients : BT.601

Audio
ID : 2
Format : AC-3
Format/Info : Audio Coding 3
Mode extension : CM (complete main)
Format settings, Endianness : Big
Codec ID : A_AC3
Duration : 1 h 18 min
Bit rate mode : Constant
Bit rate : 448 kb/s
Channel(s) : 6 channels
Channel positions : Front: L C R, Side: L R, LFE
Sampling rate : 48.0 kHz
Frame rate : 31.250 FPS (1536 spf)
Compression mode : Lossy
Stream size : 253 MiB (22%)
Title : Dub (Лицензия)
Language : Russian
Default : Yes
Forced : No

Menu
00:00:00.000 : :Chapter 01
00:08:49.200 : :Chapter 02
00:17:35.400 : :Chapter 03
00:26:18.600 : :Chapter 04
00:35:41.400 : :Chapter 05
00:43:55.800 : :Chapter 06
00:52:40.200 : :Chapter 07
01:01:30.000 : :Chapter 08
01:10:14.400 : :Chapter 09
01:15:24.000 : :Chapter 10
01:18:57.000 : :Chapter 11


Автор релиза:
Источник http://BlaTor.org

Трекер:  [ 09-Июл-2018 05:20 ]

  

Скачать .torrent

Размер .torrent файла 12 KB


Размер: 1.14 GB
Хэш (hash) релиза: 1e827477c4ebbecc3061a871bcea662cbb4bd2ef
Подписка на обновления:

Еще никто не оставлял запись к записи скачать торрент Леонардо: Миссия Мона Лиза Leo Da Vinci: Mission Mona Lisa . Будь первым!

!Обратная связь