Raising Kane | Instrumental Rock | Водный транспорт

Скачать через торрент [ATV3] Жажда смерти Death Wish бесплатно русская версия torrent активатор

Статистика раздачи
Размер:  6.97 GB   |    Зарегистрирован:  12 дней   |    .torrent скачан:  42 раза   |   
Раздают:  1  
   
загрузка...
 
Автор Сообщение

Galfimbul

avatar Galfimbul


Жажда смерти / Death Wish
«Он мстит бодро, весело и со вкусом»

6.502 / 10 6.40 / 10
Год выпуска: 2018
Страна: США
Жанр: Боевик, триллер, криминал
Продолжительность: 01:46:03

Перевод: Дублированный (iTunes)
Оригинальная аудиодорожка: Есть
Cубтитры: Английские
Режиссёр: Элай Рот
Сценарий: Джо Карнахан, Уенделл Майес, Брайан Гарфилд
Продюсер: Роджер Бирнбаум, Марк Котон, Стивен Дж. Идс
Оператор: Рогир Стофферс
Композитор: Людвиг Йоранссон
Художник: Пол Кирби, Вероник Мюнье, Мэри Джейн Форт
Монтаж: Марк Голдблатт, Ивонн Валдез
В ролях: Брюс Уиллис, Винсент Д’Онофрио, Элизабет Шу, Камила Морроне, Дин Норрис, Бо Напп, Кимберли Элиз, Лен Кариу, Джек Кеси, Ронни Джин Блевинс

Бюджет: $30 000 000
Сборы в США: $34 017 028
Сборы в России: $826 191

Мировая премьера: 1 марта 2018
Премьера (РФ): 5 апреля 2018, «Экспонента»

Цифровой релиз: 29 мая 2018, «Экспонента»

Описание: Пол Керси — хирург, привыкший вытаскивать людей с того света после криминальных разборок. Но после того, как его жена и дочь становятся жертвами уличной банды, а полиция бездействует, он берет карающий меч правосудия в свои руки. Видео изобретательных убийств преступников покоряют интернет-топы, а среди жителей города расходятся слухи о неуловимом народном мстителе, которому теперь принадлежит весь город. Он мстит бодро, весело и со вкусом.
Качество исходника: BDRemux (BlueBird)
Качество: BDRip
Тип: HD (1080p)
Контейнер: M4V
Видео: H.264, 1920x800, 2.40:1, 8 000 Kbps, 23.976 fps

Аудио 1: Русский/Дублированный (iTunes), AAC / 2.0 / 160 Kbps / 48.0 KHz
Аудио 2: Английский/Оригинальная дорожка , AAC / 2.0 / 160 Kbps / 48.0 KHz
Аудио 3: Русский/Дублированный (iTunes), AC-3 / 5.1 / 384 Kbps / 48.0 KHz
Аудио 4: Английский/Оригинальная дорожка , AC-3 / 5.1 / 640 Kbps / 48.0 KHz

Субтитры: Английские полные
Sort Name: Death Wish
XID: Apple:vendor_id:2018-409171
contentID: 1346258721
Copyright: © 2018 Metro-Goldwyn-Mayer Pictures Inc. All Rights Reserved.
Screenwriters: Джо Карнахан, Уенделл Майес, Брайан Гарфилд
Producers: Роджер Бирнбаум, Марк Котон, Стивен Дж. Идс
Director: Элай Рот
Cast: Брюс Уиллис, Винсент Д`Онофрио, Элизабет Шу, Камила Морроне, Дин Норрис, Бо Напп, Кимберли Элиз, Лен Кариу, Джек Кеси, Ронни Джин Блевинс
Studio: MGM
Rating: 5
Long Description: Пол Керси — хирург, привыкший вытаскивать людей с того света после криминальных разборок. Но после того, как его жена и дочь становятся жертвами уличной банды, а полиция бездействует, он берет карающий меч правосудия в свои руки. Видео изобретательных убийств преступников покоряют интернет-топы, а среди жителей города расходятся слухи о неуловимом народном мстителе, которому теперь принадлежит весь город. Он мстит бодро, весело и со вкусом.
Description: Пол Керси — хирург, привыкший вытаскивать людей с того света после криминальных разборок. Но после того, как его жена и дочь становятся жертвами уличной банды, а полиция бездействует, он берет карающий меч правосудия в свои руки.
Release Date: 2018-03-02T08:00:00Z
Genre: Action & Adventure
Artist: Eli Roth
Name: Death Wish
General
Complete name : /Users/imac/HandBrake/Death Wish (1080p HD).m4v
Format : MPEG-4
Codec ID : M4V
File size : 6.97 GiB
Duration : 1h 46mn
Overall bit rate mode : Variable
Overall bit rate : 9 346 Kbps
Movie name : Death Wish
Performer : Eli Roth
Director : Элай Рот
Actor : Брюс Уиллис / Винсент Д`Онофрио / Элизабет Шу / Камила Морроне / Дин Норрис / Бо Напп / Кимберли Элиз / Лен Кариу / Джек Кеси / Ронни Джин Блевинс
Screenplay by : Джо Карнахан / Уенделл Майес / Брайан Гарфилд
Producer : Роджер Бирнбаум / Марк Котон / Стивен Дж. Идс
Production studio : MGM
Genre : Action & Adventure
ContentType : Short Film
Description : Пол Керси — хирург, привыкший вытаскивать людей с того света после криминальных разборок. Но после того, как его жена и дочь становятся жертвами уличной банды, а полиция бездействует, он берет карающий меч правосудия в свои руки.
Recorded date : UTC 2018-03-02 08:00:00
Encoded date : UTC 2018-07-08 23:09:50
Tagged date : UTC 2018-07-08 23:11:39
Copyright : © 2018 Metro-Goldwyn-Mayer Pictures Inc. All Rights Reserved.
Cover : Yes
Rating : None
Title/Sort : Death Wish
LongDescription : Пол Керси — хирург, привыкший вытаскивать людей с того света после криминальных разборок. Но после того, как его жена и дочь становятся жертвами уличной банды, а полиция бездействует, он берет карающий меч правосудия в свои руки. Видео изобретательных убийств преступников покоряют интернет-топы, а среди жителей города расходятся слухи о неуловимом народном мстителе, которому теперь принадлежит весь город. Он мстит бодро, весело и со вкусом.
AppleStoreCatalogID : 1346258721
Vendor : Apple:vendor_id:2018-409171
ContentRating : mpaa|R|400|

Video #1
ID : 1
Format : AVC
Format/Info : Advanced Video Codec
Format profile : [email protected]
Format settings, CABAC : Yes
Format settings, ReFrames : 4 frames
Codec ID : avc1
Codec ID/Info : Advanced Video Coding
Duration : 1h 46mn
Source duration : 1h 46mn
Bit rate : 8 000 Kbps
Width : 1 920 pixels
Height : 800 pixels
Display aspect ratio : 2.40:1
Frame rate mode : Variable
Frame rate : 23.976 fps
Minimum frame rate : 23.974 fps
Maximum frame rate : 23.981 fps
Color space : YUV
Chroma subsampling : 4:2:0
Bit depth : 8 bits
Scan type : Progressive
Bits/(Pixel*Frame) : 0.217
Stream size : 5.96 GiB (86%)
Source stream size : 5.96 GiB (86%)
Title : Main Program
Writing library : x264 core 155 r2901 7d0ff22
Encoding settings : cabac=1 / ref=4 / deblock=1:-2:-2 / analyse=0x3:0x133 / me=umh / subme=10 / psy=1 / psy_rd=1.00:0.15 / mixed_ref=1 / me_range=32 / chroma_me=1 / trellis=2 / 8x8dct=1 / cqm=0 / deadzone=21,11 / fast_pskip=1 / chroma_qp_offset=-3 / threads=25 / lookahead_threads=6 / sliced_threads=0 / nr=0 / decimate=0 / interlaced=0 / bluray_compat=0 / constrained_intra=0 / bframes=16 / b_pyramid=2 / b_adapt=2 / b_bias=0 / direct=3 / weightb=1 / open_gop=0 / weightp=2 / keyint=240 / keyint_min=24 / scenecut=40 / intra_refresh=0 / rc_lookahead=40 / rc=2pass / mbtree=1 / bitrate=8000 / ratetol=1.0 / qcomp=0.70 / qpmin=0 / qpmax=69 / qpstep=4 / cplxblur=20.0 / qblur=0.5 / ip_ratio=1.40 / aq=1:1.00
Language : English
Encoded date : UTC 2018-07-08 23:09:50
Tagged date : UTC 2018-07-08 23:10:03
Color range : Limited
Color primaries : BT.709
Transfer characteristics : BT.709
Matrix coefficients : BT.709

Video #2
ID : 8
Format : JPEG
Codec ID : jpeg
Duration : 1h 46mn
Bit rate mode : Variable
Bit rate : 1 273 bps
Width : 640 pixels
Height : 266 pixels
Display aspect ratio : 2.40:1
Frame rate mode : Variable
Frame rate : 0.004 fps
Minimum frame rate : 0.002 fps
Maximum frame rate : 0.006 fps
Color space : YUV
Chroma subsampling : 4:2:0
Bit depth : 8 bits
Compression mode : Lossy
Bits/(Pixel*Frame) : 1.869
Stream size : 933 KiB (0%)
Title : Chapter Images
Language : English
Encoded date : UTC 2018-07-08 23:10:19
Tagged date : UTC 2018-07-08 23:10:20

Audio #1
ID : 2
Format : AAC
Format/Info : Advanced Audio Codec
Format profile : LC
Codec ID : 40
Duration : 1h 46mn
Source duration : 1h 46mn
Bit rate mode : Variable
Bit rate : 157 Kbps
Maximum bit rate : 228 Kbps
Channel(s) : 2 channels
Channel positions : Front: L R
Sampling rate : 48.0 KHz
Compression mode : Lossy
Stream size : 120 MiB (2%)
Source stream size : 120 MiB (2%)
Title : Russian Stereo
Language : Russian
Encoded date : UTC 2018-07-08 23:09:50
Tagged date : UTC 2018-07-08 23:10:08

Audio #2
ID : 3
Format : AAC
Format/Info : Advanced Audio Codec
Format profile : LC
Codec ID : 40
Duration : 1h 46mn
Source duration : 1h 46mn
Bit rate mode : Variable
Bit rate : 157 Kbps
Maximum bit rate : 252 Kbps
Channel(s) : 2 channels
Channel positions : Front: L R
Sampling rate : 48.0 KHz
Compression mode : Lossy
Stream size : 120 MiB (2%)
Source stream size : 120 MiB (2%)
Title : English Stereo
Language : English
Encoded date : UTC 2018-07-08 23:09:50
Tagged date : UTC 2018-07-08 23:10:08

Audio #3
ID : 4
Format : AC-3
Format/Info : Audio Coding 3
Mode extension : CM (complete main)
Format settings, Endianness : Big
Codec ID : ac-3
Duration : 1h 46mn
Bit rate mode : Constant
Bit rate : 384 Kbps
Channel(s) : 6 channels
Channel positions : Front: L C R, Side: L R, LFE
Sampling rate : 48.0 KHz
Bit depth : 16 bits
Compression mode : Lossy
Stream size : 293 MiB (4%)
Title : Russian DD 5.1
Language : Russian
Encoded date : UTC 2018-07-08 23:09:50
Tagged date : UTC 2018-07-08 23:10:05

Audio #4
ID : 5
Format : AC-3
Format/Info : Audio Coding 3
Mode extension : CM (complete main)
Format settings, Endianness : Big
Codec ID : ac-3
Duration : 1h 46mn
Bit rate mode : Constant
Bit rate : 640 Kbps
Channel(s) : 6 channels
Channel positions : Front: L C R, Side: L R, LFE
Sampling rate : 48.0 KHz
Bit depth : 16 bits
Compression mode : Lossy
Stream size : 489 MiB (7%)
Title : English DD 5.1
Language : English
Encoded date : UTC 2018-07-08 23:09:50
Tagged date : UTC 2018-07-08 23:10:05

Text
ID : 6
Format : Timed Text
Muxing mode : sbtl
Codec ID : tx3g
Duration : 1h 40mn
Bit rate mode : Variable
Bit rate : 76 bps
Stream size : 55.4 KiB (0%)
Title : English full
Language : English
Encoded date : UTC 2018-07-08 23:09:50
Tagged date : UTC 2018-07-08 23:09:51

Menu #1
00:00:00.000 : 00:00:00.000
00:05:39.089 : 00:05:39.089
00:08:51.239 : 00:08:51.239
00:11:55.798 : 00:11:55.798
00:19:12.860 : 00:19:12.860
00:24:34.139 : 00:24:34.139
00:28:37.174 : 00:28:37.174
00:32:45.964 : 00:32:45.964
00:36:15.840 : 00:36:15.840
00:43:49.168 : 00:43:49.168
00:47:10.411 : 00:47:10.411
00:53:49.518 : 00:53:49.518
00:56:56.413 : 00:56:56.330
01:00:27.082 : 01:00:27.082
01:07:55.154 : 01:07:55.154
01:11:16.564 : 01:11:16.564
01:15:52.256 : 01:15:52.256
01:19:23.926 : 01:19:23.926
01:22:41.415 : 01:22:41.415
01:25:43.889 : 01:25:43.889
01:28:20.837 : 01:28:20.837
01:31:24.938 : 01:31:24.813
01:37:14.537 : 01:37:14.537
01:40:07.585 : 01:40:07.585

Menu #2
ID : 7
Codec ID : text
Duration : 1h 46mn
Language : English
Encoded date : UTC 2018-07-08 23:10:08
Tagged date : UTC 2018-07-08 23:10:08
Bit rate mode : CBR
00:00:00.000 : 00:00:00.000
00:05:39.089 : 00:05:39.089
00:08:51.239 : 00:08:51.239
00:11:55.798 : 00:11:55.798
00:19:12.860 : 00:19:12.860
00:24:34.139 : 00:24:34.139
00:28:37.174 : 00:28:37.174
00:32:45.964 : 00:32:45.964
00:36:15.840 : 00:36:15.840
00:43:49.168 : 00:43:49.168
00:47:10.411 : 00:47:10.411
00:53:49.518 : 00:53:49.518
00:56:56.413 : 00:56:56.330
01:00:27.082 : 01:00:27.082
01:07:55.154 : 01:07:55.154
01:11:16.564 : 01:11:16.564
01:15:52.256 : 01:15:52.256
01:19:23.926 : 01:19:23.926
01:22:41.415 : 01:22:41.415
01:25:43.889 : 01:25:43.889
01:28:20.837 : 01:28:20.837
01:31:24.938 : 01:31:24.813
01:37:14.537 : 01:37:14.537
01:40:07.585 : 01:40:07.585
x264 [info]: frame I:1178  Avg QP:14.08  size:198908
x264 [info]: frame P:34413 Avg QP:17.10  size: 73513
x264 [info]: frame B:117943 Avg QP:17.65  size: 30843
x264 [info]: consecutive B-frames:  2.4%  3.3% 13.8% 12.4% 15.7% 42.7%  5.4%  1.0%  1.0%  0.5%  0.8%  0.2%  0.3%  0.3%  0.1%  0.0%  0.4%
x264 [info]: mb I  I16..4: 32.2% 44.8% 23.1%
x264 [info]: mb P  I16..4: 11.2% 15.9%  2.1%  P16..4: 34.1% 15.9%  9.9%  0.5%  0.2%    skip:10.1%
x264 [info]: mb B  I16..4:  4.6%  2.0%  0.3%  B16..8: 32.6% 10.2%  2.4%  direct: 9.9%  skip:38.0%  L0:42.3% L1:39.6% BI:18.1%
x264 [info]: 8x8 transform intra:43.1% inter:40.9%
x264 [info]: direct mvs  spatial:97.3% temporal:2.7%
x264 [info]: coded y,uvDC,uvAC intra: 90.0% 81.6% 71.2% inter: 28.0% 29.5% 16.0%
x264 [info]: i16 v,h,dc,p: 10%  7% 61% 22%
x264 [info]: i8 v,h,dc,ddl,ddr,vr,hd,vl,hu: 13% 11% 20%  7%  9% 10%  9% 10% 11%
x264 [info]: i4 v,h,dc,ddl,ddr,vr,hd,vl,hu: 14% 11% 19%  7% 10% 10% 10%  8% 10%
x264 [info]: i8c dc,h,v,p: 60% 15% 14% 11%
x264 [info]: Weighted P-Frames: Y:1.9% UV:1.2%
x264 [info]: ref P L0: 51.5%  9.8% 28.5%  9.9%  0.3%  0.0%
x264 [info]: ref B L0: 81.1% 15.7%  3.2%
x264 [info]: ref B L1: 93.2%  6.8%
x264 [info]: kb/s:7997.75

Релиз подготовлен для просмотра на Apple TV, iPad, iPhone, iPod Touch.
Для просмотра данного релиза на компьютере с ОС Windows рекомендуется использовать VLC media player

Трекер:  [ 09-Июл-2018 03:06 ]

  

Скачать .torrent

Размер .torrent файла 70 KB


Размер: 6.97 GB
Хэш (hash) релиза: a58fb6244eae6a495f9fd288b0f42200924355ff

Еще никто не оставлял запись к записи скачать торрент [ATV3] Жажда смерти Death Wish . Будь первым!

!Обратная связь