Bia Ribeiro | Mysteries and Thrillers | Sarah Duck

Скачать через торрент Повелитель Рагнарёка и покровитель эйнхерий Hyakuren no Haou to Seiyaku no Valkyria бесплатно Аниме Все серии на русском torrent

Статистика раздачи
Размер:  361 MB   |    Зарегистрирован:  7 дней   |    .torrent скачан:  35 раз   |   
Раздают:  2  
   
загрузка...
 
Автор Сообщение

Galfimbul

avatar Galfimbul



Страна: Япония
Год выпуска: 2018
Жанр: Фэнтези, Гарем
Тип: TV
Продолжительность: ?? эп. ~24 мин
Режиссер: Косукэ Кобаяси
Студия:
Озвучка: Двухголосая / AniLibria
—Sharon(муж)
—MyAska(жен)
Перевод: Crunchyroll
Описание: Эта история расскажет нам о головокружительном карьерном взлёте, который только можно себе представить. У многих и в нашем мире, в привычных условиях, никак не получается добиться успеха, а наш главный герой, 16-летний Юто Суо умудрился достичь невероятных высот в совершенно чужом мире. Так с чего же всё началось, и как он смог туда попасть? Однажды Юто со своим другом Мицуки решил проверить городскую легенду о зеркале в местном храме. Проверили они до такой степени, что Юто перенесло в другой мир под названием Иггдрасиль.
Мир тот находился на грани крупномасшатбной войны, а пока бесчисленное множество аристократов устраивали междоусобицы и боролись друг с другом за господство. В таких вот условиях оказался Юто, и не было у него никакого оружия, кроме собственных мозгов. Однако за относительно небольшой срок он стал патриархом армии, состоящей из нескольких тысяч человек, и на достигнутом он останавливаться явно не собирается. Впереди королевский трон. К тому же, он окружён помощью и заботой прекрасных Эйнхерий, поклявшихся в верности своему покровителю.
Информационные ссылки:: AniDB | MyAnimeList | World Art
<div class="post-box-default">
<div class="post-box">Качество: HDTVRip
Тип релиза: Без хардсаба
Формат видео: MKV
Автор рипа: Ohys-Raws
Видео: AVC, 8 bits, 1280x720, 1600~ kbps, 23,976 fps
Аудио: RUS, AAC, 48000 Hz, 192 kbps, 2 ch (в составе контейнера) ;
Аудио 2: JAP, AAC, 48000 Hz, 207 kbps, 2 ch;
Субтитры: RUS, ASS (надписи + полные, в составе контейнера) Crunchyroll</div>
</div>
Формат : MatroskaВерсия формата : Version 4 / Version 2Размер файла : 361 МбайтПродолжительность : 24 м. 0 с.Общий поток : 2101 Кбит/секДата кодирования : UTC 2018-07-08 20:31:32Программа кодирования : mkvmerge v22.0.0 ('At The End Of The World') 64-bitБиблиотека кодирования : libebml v1.3.5 + libmatroska v1.4.8Attachments : comic.ttf / 10199.ttf / 10323.ttf / 11298.ttf / 888829.ttf / arialbd.ttf / arialbi.ttf

ВидеоИдентификатор : 1Формат : AVCФормат/Информация : Advanced Video CodecПрофиль формата : [email protected]Настройки формата : CABAC / 4 Ref FramesПараметр CABAC формата : ДаПараметр RefFrames формата : 4 кадраИдентификатор кодека : V_MPEG4/ISO/AVCПродолжительность : 24 м. 0 с.Битрейт : 1684 Кбит/секШирина : 1280 пикселейВысота : 720 пикселейСоотношение сторон : 16:9Режим частоты кадров : ПеременныйЧастота кадров : 23,976 (23976/1000) кадра/секЧастота кадров в оригинале : 23,976 (24000/1001) кадра/секЦветовое пространство : YUVСубдискретизация насыщенности : 4:2:0Битовая глубина : 8 битТип развёртки : ПрогрессивнаяБит/(Пиксели*Кадры) : 0.076Размер потока : 289 Мбайт (80%)Заголовок : OriginalБиблиотека кодирования : x264 core 155 r2901 7d0ff22Настройки программы : cabac=1 / ref=3 / deblock=1:0:0 / analyse=0x1:0x111 / me=hex / subme=7 / psy=1 / psy_rd=1.00:0.00 / mixed_ref=1 / me_range=16 / chroma_me=1 / trellis=1 / 8x8dct=0 / cqm=0 / deadzone=21,11 / fast_pskip=1 / chroma_qp_offset=-2 / threads=18 / lookahead_threads=3 / sliced_threads=0 / nr=0 / decimate=1 / interlaced=0 / bluray_compat=0 / constrained_intra=0 / bframes=3 / b_pyramid=2 / b_adapt=1 / b_bias=0 / direct=1 / weightb=1 / open_gop=0 / weightp=2 / keyint=240 / keyint_min=1 / scenecut=40 / intra_refresh=0 / rc_lookahead=40 / rc=crf / mbtree=1 / crf=20.0 / qcomp=0.60 / qpmin=0 / qpmax=69 / qpstep=4 / ip_ratio=1.40 / aq=1:1.50Язык : JapaneseDefault : ДаForced : ДаЦветовой диапазон : LimitedОсновные цвета : BT.709Характеристики трансфера : BT.709Коэффициенты матрицы : BT.709

Аудио #1Идентификатор : 2Формат : AACФормат/Информация : Advanced Audio CodecПрофиль формата : LCИдентификатор кодека : A_AAC-2Продолжительность : 24 м. 0 с.Битрейт : 192 Кбит/секКаналы : 2 каналаРасположение каналов : Front: L RЧастота : 48,0 КГцЧастота кадров : 46,875 кадров/сек (1024 SPF)Метод сжатия : С потерямиРазмер потока : 32,5 Мбайт (9%)Заголовок : MyAska, SharonЯзык : RussianDefault : ДаForced : Да

Аудио #2Идентификатор : 3Формат : AACФормат/Информация : Advanced Audio CodecПрофиль формата : LCИдентификатор кодека : A_AAC-2Продолжительность : 24 м. 0 с.Битрейт : 207 Кбит/секКаналы : 2 каналаРасположение каналов : Front: L RЧастота : 48,0 КГцЧастота кадров : 46,875 кадров/сек (1024 SPF)Метод сжатия : С потерямиРазмер потока : 35,6 Мбайт (10%)Заголовок : OriginalЯзык : JapaneseDefault : НетForced : Нет

Текст #1Идентификатор : 4Формат : ASSИдентификатор кодека : S_TEXT/ASSИдентификатор кодека/Информация : Advanced Sub Station AlphaПродолжительность : 11 м. 25 с.Битрейт : 84 бит/секElementCount : 29Метод сжатия : Без потерьРазмер потока : 7,03 Кбайт (0%)Заголовок : НадписиЯзык : RussianDefault : ДаForced : Да

Текст #2Идентификатор : 5Формат : ASSИдентификатор кодека : S_TEXT/ASSИдентификатор кодека/Информация : Advanced Sub Station AlphaПродолжительность : 23 м. 34 с.Битрейт : 181 бит/секElementCount : 358Метод сжатия : Без потерьРазмер потока : 31,3 Кбайт (0%)Заголовок : CrunchyrollЯзык : RussianDefault : НетForced : Нет

01. The Oath of the Chalice (Клятвенная чаша)
02.
03.
04.
05.
06.
07.
08.
09.
10.
11.
12.
13. ...


Добавлена 1 серия

Трекер:  [ 09-Июл-2018 00:01 ]

  

Скачать .torrent

Размер .torrent файла 14 KB


Размер: 361 MB
Хэш (hash) релиза: 3f4d4283f2a11ecf4a2149457ceecafa2ddd3eca
Подписка на обновления:

Еще никто не оставлял запись к записи скачать торрент Повелитель Рагнарёка и покровитель эйнхерий Hyakuren no Haou to Seiyaku no Valkyria . Будь первым!

!Обратная связь