Paul Apostle Of Christ 2018 Movies 720p BluRay x264 5 1 +Sample 11 minutes | Index: Imperium 2 Enhanced Edition | Joseph Motiki

Скачать через торрент Насекомые или миллиметровый мир Insects. The World of Millimeters Фильм бесплатно в хорошем качестве torrent

Скачивайте на UnionPeer.org фильмы через торрент без регистрации. Новинки кино в хорошем качестве через торрент. На UnionPeer.org можно скачать через торрент фильмы 2014 и 2015 годов. Самые новые фильмы.

Скачать торрент Насекомые или миллиметровый мир Insects. The World of Millimeters бесплатно через .torrent фильм мультфильм сериал

Статистика раздачи
Размер:  4.12 GB   |    Зарегистрирован:  10 дней   |    .torrent скачан:  31 раз   |   
Раздают:  2  
   
загрузка...
 
Автор Сообщение

Galfimbul

avatar Galfimbul


Насекомые или миллиметровый мир / Insects. The World of Millimeters

Год выпуска: 2014
Страна: Южная Корея
Студия: Korea Educational Broadcasting System
Жанр: Документальный
Продолжительность: 00:48:51 - 00:47:13
Перевод: Профессиональный (дублированный)
Доп. инфо о переводе: видео фильм тв
Режиссер: Ким Кю Соп, Шин Хён Сан/Gyu-Seop KIM, Hyeon-Sang SIN

Описание: Жизнь мелких земноводных, насекомых, паукообразных часто проходит незаметной для человеческого глаза. Однако, порой она более драматична и насыщена событиями, чем мир крупных представителей животного мира. На какие ухищрения только не пускаются мелкие существа ради выживания и продолжения рода – одни мимикрируют, другие вступают в неожиданный симбиоз, третьи паразитируют. Триллер из мира насекомых, здесь едят всех...

Сэмпл: http://yadi.sk/i/Es7kOvlf3YvqLQ

Тип релиза: HDTV 1080i
Контейнер: TS

Видео: AVC, PAL, 1920x1080, 16x9, ~5787 Кbps, 25fps
Аудио: Русский, MP2, 2Ch, 48KHz, 192kbps
ОбщееИдентификатор : 1 (0x1)Полное имя : H:\Insected 2014\Насекомые или миллиметровый мир (1серия ).tsФормат : MPEG-TSРазмер файла : 2,15 ГбайтПродолжительность : 48 м. 51 с.Режим общего битрейта : ПеременныйОбщий поток : 6292 Кбит/сек

ВидеоИдентификатор : 323 (0x143)Идентификатор меню : 12103 (0x2F47)Формат : AVCФормат/Информация : Advanced Video CodecПрофиль формата : [email protected]Настройки формата : CABAC / 4 Ref FramesПараметр CABAC формата : ДаПараметр RefFrames формата : 4 кадраПараметр GOP формата : M=4, N=28Идентификатор кодека : 27Продолжительность : 48 м. 51 с.Битрейт : 5787 Кбит/секШирина : 1920 пикселейВысота : 1080 пикселейСоотношение сторон : 16:9Частота кадров : 25,000 кадров/секСтандарт вещания : ComponentЦветовое пространство : YUVСубдискретизация насыщенности : 4:2:0Битовая глубина : 8 битТип развёртки : ЧересстрочнаяМетод сохранения типа развёртки : Раздельные поляПорядок развёртки : Верхнее поле первоеБит/(Пиксели*Кадры) : 0.112Размер потока : 1,98 Гбайт (92%)Цветовой диапазон : LimitedОсновные цвета : BT.709Характеристики трансфера : BT.709Коэффициенты матрицы : BT.709

АудиоИдентификатор : 403 (0x193)Идентификатор меню : 12103 (0x2F47)Формат : MPEG AudioВерсия формата : Version 1Профиль формата : Layer 2Идентификатор кодека : 3Продолжительность : 48 м. 51 с.Вид битрейта : ПостоянныйБитрейт : 192 Кбит/секКаналы : 2 каналаЧастота : 48,0 КГцЧастота кадров : 41,667 кадра/сек (1152 SPF)Метод сжатия : С потерямиЗадержка видео : -80 мс.Размер потока : 67,1 Мбайт (3%)Язык : Russian


Трекер:  [ 08-Июл-2018 18:36 ]

  

Скачать .torrent

Размер .torrent файла 21 KB


Размер: 4.12 GB
Хэш (hash) релиза: 636b23c2e7316c7a0228f11e4c9bc0dc191adf1a
Подписка на обновления:

Еще никто не оставлял запись к записи скачать торрент Насекомые или миллиметровый мир Insects. The World of Millimeters . Будь первым!

!Обратная связь