When You Dare (Men Who Walk the Edge of Honor #1) | Rzeka / The River | Insecure

Скачать через торрент Джеронимо Стилтон Geronimo Stilton Фильм бесплатно в хорошем качестве torrent

Скачивайте на UnionPeer.org фильмы через торрент без регистрации. Новинки кино в хорошем качестве через торрент. На UnionPeer.org можно скачать через торрент фильмы 2014 и 2015 годов. Самые новые фильмы.

Скачать торрент Джеронимо Стилтон Geronimo Stilton бесплатно через .torrent фильм мультфильм сериал

Статистика раздачи
Размер:  13.66 GB   |    Зарегистрирован:  8 дней   |    .torrent скачан:  20 раз   |   
Раздают:  1  
   
загрузка...
 
Автор Сообщение

Galfimbul

avatar Galfimbul


Джеронимо Стилтон / Geronimo Stilton

Страна: Италия, Atlantyca Enterprises
Жанр: Мультсериал, приключения, семейный, детский
Продолжительность серии: 26x ~00:23:06
Год выпуска: 2016
Перевод: Отсутствует
Русские субтитры: нет

Режиссёр: Давид Века, Николас Блэр / Davide Veca, Nicolas Blard
Роли озвучивали: Брайан Драммонд, Эрин Мэтьюз, Сара Эдмондсон, Ричард Йен Кокс, Монека Стори, Патриция Дрэйк, Кэтлин Барр, Моника Бонетто, Deborah Magnaghi, Скотт МакНил

Описание: Комедийный анимационный сериал о приключениях всемирно известной мыши по имени Джеронимо Стилтон. Джеронимо Стилтон — эрудированная мышь, писатель, журналист, главный редактор газеты «Эхо Мышенции» и глава огромной медиа-империи. Он мечтает о спокойной жизни, но его друзья и работа постоянно вовлекают Джеронимо в водоворот событий, опасностей и приключений. Вместе со своим племянником, сестрой, кузеном и остальными персонажами Джеронимо будет расследовать загадочные происшествия в Мышенции, посетит отдаленные уголки мира и удивительные экзотические места. И обо всех этих приключениях обязательно напишут на страницах «Эха Мышенции» а Джеронимо расскажет в репортаже в новостях.

Список серий:
1. "Van Mousling" / Ван Мышлинг
2. "Geronimo vs the Weremouse" / Джеронимо и Вермышь
3. "Off Road Rats" / Крысы бездорожья
4. "Double Trap" / Двойной Трэп
5. "The Big Sleep" / Большой сон
6. "Trade Off" / Вынужденный обмен
7. "Bantam of the Balcony" / Балконный Бантам
8. "Cheese Raker" / Сырный рэкет
9. "Sorceress of the Bayou" / Волшебство Байо
10. "Lights in the Desert" / Свет в пустыне
11. "Guardians of the King" / Охраники Короля
12. "The Legend of Marzipan Island" / Легенда Марципанового острова
13. "Clowning Around" / Валять дурака
14. "Lava or Leave Her" / Лава или бросить её
15. "Snow Job" / Снежная работа
16. "The Sword of Mousitomo" / Меч Мышемото
17. "A Tall Order" / Высокий порядок
18. "A Mouse on the Moon" / Мышь на луне
19. "The False Teeth Caper" / Ложная зубная палочка
20. "Virtual Vacation" / Виртуальный отдых
21. "Skateboarding Championship" / Чемпионат по скейтбордингу
22. "Ghost Bashers" / Уничтожители приведений
23. "The Mystery of Mancheco Island" / Загадка острова Манчеко
24. "The Mouse Sitter" / Мышоняня
25. "Lights, Camera, Action" / Свет, камера, мотор
26. "Junior Jack" / Малыш Джек
Ссылка на предыдущие и альтернативные раздачи:

Качество: WEB-DL 1080p
Формат: MKV
Видео: MPEG4 Video (H264), 1920x1080, 25fps, 3 320 kb/s
Аудио: Английский: AC-3, 2 channels, 48 KHz, 128 Kbps
Субтитры: Английские/ Английские для слабо слышащих / Испанские/ Итальянские
GeneralUnique ID : 270031250683589555107891932390581933601 (0xCB26208DA2AFC80098F8A1EC18F91621)Complete name : E:\TV Series\Geronimo.Stilton.S03.1080p.NF.WEBRip.DDP2.0.x264-alfaHD[rartv]\Geronimo.Stilton.S03E14.Lava.or.Leave.Her.1080p.NF.WEB-DL.DD+2.0.x264-alfaHD.mkvFormat : MatroskaFormat version : Version 4 / Version 2File size : 568 MiBDuration : 23 min 6 sOverall bit rate mode : VariableOverall bit rate : 3 436 kb/sEncoded date : UTC 2018-02-22 14:57:42Writing application : mkvmerge v20.0.0 ('I Am The Sun') 64-bitWriting library : libebml v1.3.5 + libmatroska v1.4.8

VideoID : 1Format : AVCFormat/Info : Advanced Video CodecFormat profile : [email protected] settings, CABAC : YesFormat settings, ReFrames : 3 framesCodec ID : V_MPEG4/ISO/AVCDuration : 23 min 6 sBit rate mode : VariableBit rate : 3 320 kb/sMaximum bit rate : 4 980 kb/sWidth : 1 920 pixelsHeight : 1 080 pixelsDisplay aspect ratio : 16:9Frame rate mode : ConstantFrame rate : 25.000 FPSColor space : YUVChroma subsampling : 4:2:0Bit depth : 8 bitsScan type : ProgressiveBits/(Pixel*Frame) : 0.064Stream size : 546 MiB (96%)Writing library : x264 core 148Encoding settings : cabac=1 / ref=3 / deblock=1:0:0 / analyse=0x1:0x111 / me=umh / subme=10 / psy=1 / psy_rd=1.00:0.00 / mixed_ref=1 / me_range=24 / chroma_me=1 / trellis=2 / 8x8dct=0 / cqm=0 / deadzone=21,11 / fast_pskip=1 / chroma_qp_offset=-2 / threads=8 / lookahead_threads=1 / sliced_threads=0 / nr=0 / decimate=1 / interlaced=0 / bluray_compat=0 / stitchable=1 / constrained_intra=0 / bframes=2 / b_pyramid=0 / b_adapt=2 / b_bias=0 / direct=3 / weightb=1 / open_gop=0 / weightp=2 / keyint=50 / keyint_min=26 / scenecut=0 / intra_refresh=0 / rc_lookahead=50 / rc=2pass / mbtree=1 / bitrate=3320 / ratetol=1.0 / qcomp=0.50 / qpmin=6 / qpmax=51 / qpstep=4 / cplxblur=20.0 / qblur=0.5 / vbv_maxrate=4980 / vbv_bufsize=6640 / nal_hrd=vbr / filler=0 / ip_ratio=1.40 / aq=1:1.00Default : YesForced : No

AudioID : 2Format : E-AC-3Format/Info : Enhanced Audio Coding 3Format settings, Endianness : BigCodec ID : A_EAC3Duration : 23 min 6 sBit rate mode : ConstantBit rate : 128 kb/sChannel(s) : 2 channelsChannel positions : Front: L RSampling rate : 48.0 kHzFrame rate : 187.500 FPS (256 spf)Compression mode : LossyStream size : 21.2 MiB (4%)Title : EnglishLanguage : EnglishDefault : YesForced : No

Text #1ID : 3Format : UTF-8Codec ID : S_TEXT/UTF8Codec ID/Info : UTF-8 Plain TextDuration : 22 min 29 sBit rate : 67 b/sCount of elements : 278Stream size : 11.2 KiB (0%)Language : EnglishDefault : YesForced : No

Text #2ID : 4Format : UTF-8Codec ID : S_TEXT/UTF8Codec ID/Info : UTF-8 Plain TextDuration : 22 min 29 sBit rate : 77 b/sCount of elements : 315Stream size : 12.7 KiB (0%)Title : SDHLanguage : EnglishDefault : NoForced : No

Text #3ID : 5Format : UTF-8Codec ID : S_TEXT/UTF8Codec ID/Info : UTF-8 Plain TextDuration : 22 min 22 sBit rate : 65 b/sCount of elements : 274Stream size : 10.8 KiB (0%)Language : SpanishDefault : NoForced : No

Text #4ID : 6Format : UTF-8Codec ID : S_TEXT/UTF8Codec ID/Info : UTF-8 Plain TextDuration : 22 min 22 sBit rate : 68 b/sCount of elements : 274Stream size : 11.2 KiB (0%)Language : ItalianDefault : NoForced : No
Предыдущие и альтернативные раздачи

Трекер:  [ 08-Июл-2018 15:54 ]

  

Скачать .torrent

Размер .torrent файла 140 KB


Размер: 13.66 GB
Хэш (hash) релиза: 5a9f70c12b05fb2c6a7fa56e56d9c0b97634ad57
Подписка на обновления:

Еще никто не оставлял запись к записи скачать торрент Джеронимо Стилтон Geronimo Stilton . Будь первым!

!Обратная связь