Deutschland 83 | dynamodb | Anime - Sub

Скачать через торрент Линия дьявола Devils Line Фильм бесплатно в хорошем качестве torrent

Скачивайте на UnionPeer.org фильмы через торрент без регистрации. Новинки кино в хорошем качестве через торрент. На UnionPeer.org можно скачать через торрент фильмы 2014 и 2015 годов. Самые новые фильмы.

Скачать торрент Линия дьявола Devils Line бесплатно через .torrent фильм мультфильм сериал

Статистика раздачи
Размер:  1.31 GB   |    Зарегистрирован:  9 дней   |    .torrent скачан:  20 раз   |   
Раздают:  1  
   
загрузка...
 
Автор Сообщение

Galfimbul

avatar Galfimbul


Линия дьявола
Оригинальное название: デビルズライン
Английское название: Devil's Line
Период трансляции: c 07.04.2018 по 23.06.2018
Страна: Япония
Жанр: приключения, драма, сверхъестественное , романтика
Продолжительность: 12 эп., ~25 мин.
Режиссер: Накано Хидэаки
Студия:
Перевод: Субтитры от [YakuSub Studio]
Переводчик: Nika_Elrik;
Редактор: Aero;
Оформление: licuma
Описание: Вампиры живут среди людей. Но правительству, конечно, не ведомо их существование, ведь внешне они ничем не отличаются от обычных людей. Эти существа научились подавлять жажду человеческой крови. Однако, порой, когда они во власти невыносимого голода или когда их сознание обуревает ярость, монстры, увы, становятся монстрами...
Юки Анзай — наполовину вампир, Цукаса Тайра — обычная школьница. Эта история об их взаимоотношениях.
1 Dark Side
2 Safe House
3 Paradox
4 Monster
5 Plan B
6 Dogmatic
7 Chaser
8 Offline
9 Command
10 Ego Defense
11 Ouroboros
12 Devils` Line

Качество видео: WEBRip
Формат: MP4
Видео кодек: H.264
Аудио кодек: AAC
Видео: MPEG4 Video (H264) 480x272 23.976fps 511kbps
Аудио: AAC 48000Hz stereo 124kbps
Format : MPEG-4
Format profile : Base Media
Codec ID : isom (isom/avc1)
File size : 112 MiB
Duration : 24 min
Overall bit rate mode : Variable
Overall bit rate : 640 kb/s
Encoded date : UTC 2018-07-04 13:19:05
Tagged date : UTC 2018-07-04 13:19:05

Video
ID : 1
Format : AVC
Format/Info : Advanced Video Codec
Format profile : [email protected]
Format settings, CABAC : Yes
Format settings, ReFrames : 2 frames
Codec ID : avc1
Codec ID/Info : Advanced Video Coding
Duration : 24 min
Bit rate : 512 kb/s
Maximum bit rate : 2 476 kb/s
Width : 480 pixels
Height : 272 pixels
Display aspect ratio : 16:9
Frame rate mode : Constant
Frame rate : 23.976 (24000/1001) FPS
Color space : YUV
Chroma subsampling : 4:2:0
Bit depth : 8 bits
Scan type : Progressive
Bits/(Pixel*Frame) : 0.164
Stream size : 89.5 MiB (80%)
Writing library : x264 core 65 r999kMod cc51047
Encoding settings : cabac=1 / ref=2 / deblock=1:-2:-1 / analyse=0x1:0x131 / me=umh / subme=7 / psy_rd=1.0:0.0 / mixed_ref=1 / me_range=16 / chroma_me=1 / trellis=2 / 8x8dct=0 / cqm=0 / deadzone=21,11 / chroma_qp_offset=-2 / threads=2 / thread_queue=2 / nr=0 / decimate=0 / mbaff=0 / bframes=3 / b_pyramid=0 / b_adapt=1 / b_bias=0 / direct=3 / wpredb=1 / keyint=250 / keyint_min=25 / scenecut=40(pre) / rc=2pass / bitrate=512 / ratetol=1.0 / qcomp=0.60 / qpmin=10 / qpmax=51 / qpstep=4 / cplxblur=20.0 / qblur=0.5 / ip_ratio=1.40 / pb_ratio=1.30 / aq=1:1.00
Encoded date : UTC 2018-07-04 13:19:05
Tagged date : UTC 2018-07-04 13:19:29

Audio
ID : 2
Format : AAC
Format/Info : Advanced Audio Codec
Format profile : LC
Codec ID : 40
Duration : 24 min
Bit rate mode : Variable
Bit rate : 125 kb/s
Maximum bit rate : 204 kb/s
Channel(s) : 2 channels
Channel positions : Front: L R
Sampling rate : 48.0 kHz
Frame rate : 46.875 FPS (1024 spf)
Compression mode : Lossy
Stream size : 21.8 MiB (20%)
Encoded date : UTC 2018-07-04 13:19:26
Tagged date : UTC 2018-07-04 13:19:29


Трекер:  [ 08-Июл-2018 13:36 ]

  

Скачать .torrent

Размер .torrent файла 14 KB


Размер: 1.31 GB
Хэш (hash) релиза: 87e645c9718d219088187c8c5d5821f9662fa6ff
Подписка на обновления:

Еще никто не оставлял запись к записи скачать торрент Линия дьявола Devils Line . Будь первым!

!Обратная связь