1x849 One Piece | Ian Colletti | 1x12 Violet Evergarden

Скачать через торрент Пять ключей The Five Keys Фильм бесплатно в хорошем качестве torrent

Скачивайте на UnionPeer.org фильмы через торрент без регистрации. Новинки кино в хорошем качестве через торрент. На UnionPeer.org можно скачать через торрент фильмы 2014 и 2015 годов. Самые новые фильмы.

Скачать торрент Пять ключей The Five Keys бесплатно через .torrent фильм мультфильм сериал

Статистика раздачи
Размер:  7.44 GB   |    Зарегистрирован:  1 месяц 13 дней   |    .torrent скачан:  30 раз   |   
Раздают:  1  
   
загрузка...
 
Автор Сообщение

Galfimbul

avatar Galfimbul


Пять ключей / The Five Keys

Год выпуска: 2013
Страна: Южная Корея
Студия: EBS
Жанр: Документальный, научно-познаватнльный
Продолжительность: 5 x ~ 00:47:06
Перевод: Студийный (одноголосый закадровый)
Доп. инфо о переводе: Видеофильм ТВ
Режиссер: Cho Jin-hwan / Хо Джин-хван

Описание: Мир современных технологий настолько разнообразен, что разум одного человека не способен объять все научные достижения. Ученые со всего света ежедневно пополняют сокровищницу мировых знаний своими открытиями. Фильм расскажет о пяти ключах, которые способны открыть любую дверь. Они помогут прояснить будущее новейших технологий.

Сэмпл: http://www.sendspace.com/file/od2ci7

Тип релиза: HDTVRip 720p
Контейнер: MKV

Видео: 1280x720 (16:9), 25 fps, AVC (x264), [email protected], 4000 kbps avg, 0.174 bit/pixel
Аудио: Русский 48.0 KHz, AC3 6 ch (Front: L C R, Side: L R, LFE) ch, ~448.00 kbps avg
Complete name : G:\Торренты\Пять ключей\01. Нули и единицы_Мир цифровых технологий_720p.mkvFormat : MatroskaFormat version : Version 4 / Version 2File size : 1.44 GiBDuration : 46 min 27 sOverall bit rate : 4 450 kb/sEncoded date : UTC 2018-05-12 16:23:14Writing application : mkvmerge v6.6.0 ('The Edge Of The In Between') built on Dec 1 2013 17:55:00Writing library : libebml v1.3.0 + libmatroska v1.4.1

VideoID : 1Format : AVCFormat/Info : Advanced Video CodecFormat profile : [email protected] settings : CABAC / 9 Ref FramesFormat settings, CABAC : YesFormat settings, ReFrames : 9 framesCodec ID : V_MPEG4/ISO/AVCDuration : 46 min 27 sBit rate : 4 000 kb/sWidth : 1 280 pixelsHeight : 720 pixelsDisplay aspect ratio : 16:9Frame rate mode : ConstantFrame rate : 25.000 FPSColor space : YUVChroma subsampling : 4:2:0Bit depth : 8 bitsScan type : ProgressiveBits/(Pixel*Frame) : 0.174Stream size : 1.27 GiB (88%)Writing library : x264 core 155 r2901 7d0ff22Encoding settings : cabac=1 / ref=9 / deblock=1:-3:-3 / analyse=0x3:0x133 / me=umh / subme=9 / psy=1 / psy_rd=1.00:0.00 / mixed_ref=1 / me_range=32 / chroma_me=1 / trellis=2 / 8x8dct=1 / cqm=0 / deadzone=21,11 / fast_pskip=1 / chroma_qp_offset=-2 / threads=12 / lookahead_threads=2 / sliced_threads=0 / nr=0 / decimate=0 / interlaced=0 / bluray_compat=0 / constrained_intra=0 / bframes=9 / b_pyramid=2 / b_adapt=2 / b_bias=0 / direct=3 / weightb=1 / open_gop=0 / weightp=2 / keyint=250 / keyint_min=25 / scenecut=40 / intra_refresh=0 / rc_lookahead=50 / rc=2pass / mbtree=1 / bitrate=4000 / ratetol=1.0 / qcomp=0.60 / qpmin=0 / qpmax=69 / qpstep=4 / cplxblur=20.0 / qblur=0.5 / ip_ratio=1.40 / aq=1:1.00Language : EnglishDefault : YesForced : No

AudioID : 2Format : AC-3Format/Info : Audio Coding 3Codec ID : A_AC3Duration : 46 min 27 sBit rate mode : ConstantBit rate : 448 kb/sChannel(s) : 6 channelsChannel positions : Front: L C R, Side: L R, LFESampling rate : 48.0 kHzFrame rate : 31.250 FPS (1536 SPF)Bit depth : 16 bitsCompression mode : LossyStream size : 149 MiB (10%)Language : RussianService kind : Complete MainDefault : YesForced : No

Complete name : G:\Торренты\Пять ключей\02. Новые материалы_720p.mkvFormat : MatroskaFormat version : Version 4 / Version 2File size : 1.46 GiBDuration : 47 min 6 sOverall bit rate : 4 449 kb/sEncoded date : UTC 2018-05-12 18:02:34Writing application : mkvmerge v6.6.0 ('The Edge Of The In Between') built on Dec 1 2013 17:55:00Writing library : libebml v1.3.0 + libmatroska v1.4.1

VideoID : 1Format : AVCFormat/Info : Advanced Video CodecFormat profile : [email protected] settings : CABAC / 9 Ref FramesFormat settings, CABAC : YesFormat settings, ReFrames : 9 framesCodec ID : V_MPEG4/ISO/AVCDuration : 47 min 6 sBit rate : 4 000 kb/sWidth : 1 280 pixelsHeight : 720 pixelsDisplay aspect ratio : 16:9Frame rate mode : ConstantFrame rate : 25.000 FPSColor space : YUVChroma subsampling : 4:2:0Bit depth : 8 bitsScan type : ProgressiveBits/(Pixel*Frame) : 0.174Stream size : 1.29 GiB (88%)Writing library : x264 core 155 r2901 7d0ff22Encoding settings : cabac=1 / ref=9 / deblock=1:-3:-3 / analyse=0x3:0x133 / me=umh / subme=9 / psy=1 / psy_rd=1.00:0.00 / mixed_ref=1 / me_range=32 / chroma_me=1 / trellis=2 / 8x8dct=1 / cqm=0 / deadzone=21,11 / fast_pskip=1 / chroma_qp_offset=-2 / threads=12 / lookahead_threads=2 / sliced_threads=0 / nr=0 / decimate=0 / interlaced=0 / bluray_compat=0 / constrained_intra=0 / bframes=9 / b_pyramid=2 / b_adapt=2 / b_bias=0 / direct=3 / weightb=1 / open_gop=0 / weightp=2 / keyint=250 / keyint_min=25 / scenecut=40 / intra_refresh=0 / rc_lookahead=50 / rc=2pass / mbtree=1 / bitrate=4000 / ratetol=1.0 / qcomp=0.60 / qpmin=0 / qpmax=69 / qpstep=4 / cplxblur=20.0 / qblur=0.5 / ip_ratio=1.40 / aq=1:1.00Language : EnglishDefault : YesForced : No

AudioID : 2Format : AC-3Format/Info : Audio Coding 3Codec ID : A_AC3Duration : 47 min 6 sBit rate mode : ConstantBit rate : 448 kb/sChannel(s) : 6 channelsChannel positions : Front: L C R, Side: L R, LFESampling rate : 48.0 kHzFrame rate : 31.250 FPS (1536 SPF)Bit depth : 16 bitsCompression mode : LossyStream size : 151 MiB (10%)Language : RussianService kind : Complete MainDefault : YesForced : No

Complete name : G:\Торренты\Пять ключей\03. Семена_720p.mkvFormat : MatroskaFormat version : Version 4 / Version 2File size : 1.49 GiBDuration : 47 min 49 sOverall bit rate : 4 450 kb/sEncoded date : UTC 2018-05-12 19:34:19Writing application : mkvmerge v6.6.0 ('The Edge Of The In Between') built on Dec 1 2013 17:55:00Writing library : libebml v1.3.0 + libmatroska v1.4.1

VideoID : 1Format : AVCFormat/Info : Advanced Video CodecFormat profile : [email protected] settings : CABAC / 9 Ref FramesFormat settings, CABAC : YesFormat settings, ReFrames : 9 framesCodec ID : V_MPEG4/ISO/AVCDuration : 47 min 49 sBit rate : 4 000 kb/sWidth : 1 280 pixelsHeight : 720 pixelsDisplay aspect ratio : 16:9Frame rate mode : ConstantFrame rate : 25.000 FPSColor space : YUVChroma subsampling : 4:2:0Bit depth : 8 bitsScan type : ProgressiveBits/(Pixel*Frame) : 0.174Stream size : 1.31 GiB (88%)Writing library : x264 core 155 r2901 7d0ff22Encoding settings : cabac=1 / ref=9 / deblock=1:-3:-3 / analyse=0x3:0x133 / me=umh / subme=9 / psy=1 / psy_rd=1.00:0.00 / mixed_ref=1 / me_range=32 / chroma_me=1 / trellis=2 / 8x8dct=1 / cqm=0 / deadzone=21,11 / fast_pskip=1 / chroma_qp_offset=-2 / threads=12 / lookahead_threads=2 / sliced_threads=0 / nr=0 / decimate=0 / interlaced=0 / bluray_compat=0 / constrained_intra=0 / bframes=9 / b_pyramid=2 / b_adapt=2 / b_bias=0 / direct=3 / weightb=1 / open_gop=0 / weightp=2 / keyint=250 / keyint_min=25 / scenecut=40 / intra_refresh=0 / rc_lookahead=50 / rc=2pass / mbtree=1 / bitrate=4000 / ratetol=1.0 / qcomp=0.60 / qpmin=0 / qpmax=69 / qpstep=4 / cplxblur=20.0 / qblur=0.5 / ip_ratio=1.40 / aq=1:1.00Language : EnglishDefault : YesForced : No

AudioID : 2Format : AC-3Format/Info : Audio Coding 3Codec ID : A_AC3Duration : 47 min 49 sBit rate mode : ConstantBit rate : 448 kb/sChannel(s) : 6 channelsChannel positions : Front: L C R, Side: L R, LFESampling rate : 48.0 kHzFrame rate : 31.250 FPS (1536 SPF)Bit depth : 16 bitsCompression mode : LossyStream size : 153 MiB (10%)Language : RussianService kind : Complete MainDefault : YesForced : No

Complete name : G:\Торренты\Пять ключей\04. Мутация генов_720p.mkvFormat : MatroskaFormat version : Version 4 / Version 2File size : 1.50 GiBDuration : 48 min 17 sOverall bit rate : 4 449 kb/sEncoded date : UTC 2018-05-13 05:10:20Writing application : mkvmerge v6.6.0 ('The Edge Of The In Between') built on Dec 1 2013 17:55:00Writing library : libebml v1.3.0 + libmatroska v1.4.1

VideoID : 1Format : AVCFormat/Info : Advanced Video CodecFormat profile : [email protected] settings : CABAC / 9 Ref FramesFormat settings, CABAC : YesFormat settings, ReFrames : 9 framesCodec ID : V_MPEG4/ISO/AVCDuration : 48 min 17 sBit rate : 4 000 kb/sWidth : 1 280 pixelsHeight : 720 pixelsDisplay aspect ratio : 16:9Frame rate mode : ConstantFrame rate : 25.000 FPSColor space : YUVChroma subsampling : 4:2:0Bit depth : 8 bitsScan type : ProgressiveBits/(Pixel*Frame) : 0.174Stream size : 1.32 GiB (88%)Writing library : x264 core 155 r2901 7d0ff22Encoding settings : cabac=1 / ref=9 / deblock=1:-3:-3 / analyse=0x3:0x133 / me=umh / subme=9 / psy=1 / psy_rd=1.00:0.00 / mixed_ref=1 / me_range=32 / chroma_me=1 / trellis=2 / 8x8dct=1 / cqm=0 / deadzone=21,11 / fast_pskip=1 / chroma_qp_offset=-2 / threads=12 / lookahead_threads=2 / sliced_threads=0 / nr=0 / decimate=0 / interlaced=0 / bluray_compat=0 / constrained_intra=0 / bframes=9 / b_pyramid=2 / b_adapt=2 / b_bias=0 / direct=3 / weightb=1 / open_gop=0 / weightp=2 / keyint=250 / keyint_min=25 / scenecut=40 / intra_refresh=0 / rc_lookahead=50 / rc=2pass / mbtree=1 / bitrate=4000 / ratetol=1.0 / qcomp=0.60 / qpmin=0 / qpmax=69 / qpstep=4 / cplxblur=20.0 / qblur=0.5 / ip_ratio=1.40 / aq=1:1.00Language : EnglishDefault : YesForced : No

AudioID : 2Format : AC-3Format/Info : Audio Coding 3Codec ID : A_AC3Duration : 48 min 17 sBit rate mode : ConstantBit rate : 448 kb/sChannel(s) : 6 channelsChannel positions : Front: L C R, Side: L R, LFESampling rate : 48.0 kHzFrame rate : 31.250 FPS (1536 SPF)Bit depth : 16 bitsCompression mode : LossyStream size : 155 MiB (10%)Language : RussianService kind : Complete MainDefault : YesForced : No

Complete name : G:\Торренты\Пять ключей\05. Солнце_720p.mkvFormat : MatroskaFormat version : Version 4 / Version 2File size : 1.55 GiBDuration : 49 min 48 sOverall bit rate : 4 448 kb/sEncoded date : UTC 2018-05-13 07:34:33Writing application : mkvmerge v6.6.0 ('The Edge Of The In Between') built on Dec 1 2013 17:55:00Writing library : libebml v1.3.0 + libmatroska v1.4.1

VideoID : 1Format : AVCFormat/Info : Advanced Video CodecFormat profile : [email protected] settings : CABAC / 9 Ref FramesFormat settings, CABAC : YesFormat settings, ReFrames : 9 framesCodec ID : V_MPEG4/ISO/AVCDuration : 49 min 48 sBit rate : 4 000 kb/sWidth : 1 280 pixelsHeight : 720 pixelsDisplay aspect ratio : 16:9Frame rate mode : ConstantFrame rate : 25.000 FPSColor space : YUVChroma subsampling : 4:2:0Bit depth : 8 bitsScan type : ProgressiveBits/(Pixel*Frame) : 0.174Stream size : 1.36 GiB (88%)Writing library : x264 core 155 r2901 7d0ff22Encoding settings : cabac=1 / ref=9 / deblock=1:-3:-3 / analyse=0x3:0x133 / me=umh / subme=9 / psy=1 / psy_rd=1.00:0.00 / mixed_ref=1 / me_range=32 / chroma_me=1 / trellis=2 / 8x8dct=1 / cqm=0 / deadzone=21,11 / fast_pskip=1 / chroma_qp_offset=-2 / threads=12 / lookahead_threads=2 / sliced_threads=0 / nr=0 / decimate=0 / interlaced=0 / bluray_compat=0 / constrained_intra=0 / bframes=9 / b_pyramid=2 / b_adapt=2 / b_bias=0 / direct=3 / weightb=1 / open_gop=0 / weightp=2 / keyint=250 / keyint_min=25 / scenecut=40 / intra_refresh=0 / rc_lookahead=50 / rc=2pass / mbtree=1 / bitrate=4000 / ratetol=1.0 / qcomp=0.60 / qpmin=0 / qpmax=69 / qpstep=4 / cplxblur=20.0 / qblur=0.5 / ip_ratio=1.40 / aq=1:1.00Language : EnglishDefault : YesForced : No

AudioID : 2Format : AC-3Format/Info : Audio Coding 3Codec ID : A_AC3Duration : 49 min 48 sBit rate mode : ConstantBit rate : 448 kb/sChannel(s) : 6 channelsChannel positions : Front: L C R, Side: L R, LFESampling rate : 48.0 kHzFrame rate : 31.250 FPS (1536 SPF)Bit depth : 16 bitsCompression mode : LossyStream size : 160 MiB (10%)Language : RussianService kind : Complete MainDefault : YesForced : No
1. Нули и единицы. Мир цифровых технологий / Zeros and Ones The World of Digital Technology
2. Новые Материалы / New Materials
3. Генная инженерия(Семена) / Seeds
4. Мутация генов / Mutation
5. Солнце / The Sun


Трекер:  [ 08-Июл-2018 11:36 ]

  

Скачать .torrent

Размер .torrent файла 38 KB


Размер: 7.44 GB
Хэш (hash) релиза: a2eb821d61c4692e5c9f68fc43dd5741510ac988
Подписка на обновления:

Еще никто не оставлял запись к записи скачать торрент Пять ключей The Five Keys . Будь первым!

!Обратная связь