The Handmaid’s Tale 2ª Temporada Legendado / Dual Áudio Torrent (2018) WEB-DL 720p | 1080p | Gloria Castillo | racing results excel

Скачать через торрент Приключение в городе снов Фильм бесплатно в хорошем качестве torrent

Скачивайте на UnionPeer.org фильмы через торрент без регистрации. Новинки кино в хорошем качестве через торрент. На UnionPeer.org можно скачать через торрент фильмы 2014 и 2015 годов. Самые новые фильмы.

Скачать торрент Приключение в городе снов бесплатно через .torrent фильм мультфильм сериал

Статистика раздачи
Размер:  139 MB   |    Зарегистрирован:  9 дней   |    .torrent скачан:  22 раза   |   
Раздают:  1  
   
загрузка...
 
Автор Сообщение

Galfimbul

avatar Galfimbul


Приключение в городе снов
Жанр: мультфильм
Студия: Казахфильм
Продолжительность: 00:08:03
Год выпуска: 1980
Режиссёр: А.Абилкасимов
Описание: О фантазере и мечтателе Малыше, который вместе с добрым волшебником Тус-Ата (Дедушкой Сном) и хитрым Джинном совершил увлекательное путешествие в Город Снов.
Качество: DVB [Ел Арна] (эфир 08.07.2018)
Формат: TS
Видео: AVC, 720x576 (16:9) @ 1047x576, 25 fps, ~2099 kbps, 0.202 bit/pixel
Аудио: [RUS] MP2, 48 kHz, 2 ch, 192 kbps
GeneralID : 1 (0x1)Complete name : H:\Раздачи\Приключение в городе снов (1980) [DVB].tsFormat : MPEG-TSFile size : 139 MiBDuration : 8 min 3 sOverall bit rate mode : VariableOverall bit rate : 2 413 kb/s

VideoID : 67 (0x43)Menu ID : 1 (0x1)Format : AVCFormat/Info : Advanced Video CodecFormat profile : [email protected] settings : CABAC / 3 Ref FramesFormat settings, CABAC : YesFormat settings, ReFrames : 3 framesCodec ID : 27Duration : 8 min 3 sBit rate : 2 099 kb/sWidth : 720 pixelsHeight : 576 pixelsDisplay aspect ratio : 16:9Frame rate : 25.000 FPSStandard : ComponentColor space : YUVChroma subsampling : 4:2:0Bit depth : 8 bitsScan type : InterlacedScan type, store method : Separated fieldsScan order : Top Field FirstBits/(Pixel*Frame) : 0.202Stream size : 121 MiB (87%)Color range : LimitedColor primaries : BT.601 PALTransfer characteristics : BT.470 System B/GMatrix coefficients : BT.470 System B/G

AudioID : 68 (0x44)Menu ID : 1 (0x1)Format : MPEG AudioFormat version : Version 1Format profile : Layer 2Codec ID : 3Duration : 8 min 3 sBit rate mode : ConstantBit rate : 192 kb/sChannel(s) : 2 channelsSampling rate : 48.0 kHzFrame rate : 41.667 FPS (1152 SPF)Compression mode : LossyStream size : 11.1 MiB (8%)Language : English


Трекер:  [ 08-Июл-2018 10:01 ]

  

Скачать .torrent

Размер .torrent файла 11 KB


Размер: 139 MB
Хэш (hash) релиза: ef125eeb7c91255b560dbd3974d65029e0006181
Подписка на обновления:

Еще никто не оставлял запись к записи скачать торрент Приключение в городе снов . Будь первым!

!Обратная связь