TuCine.com - Peliculas 2015 Online Gratis! | Dernière page » | Sueno Profundo BluRay-Screeener

Скачать через торрент Батыр - заячья душа Коркак-Батыр Фильм бесплатно в хорошем качестве torrent

Скачивайте на UnionPeer.org фильмы через торрент без регистрации. Новинки кино в хорошем качестве через торрент. На UnionPeer.org можно скачать через торрент фильмы 2014 и 2015 годов. Самые новые фильмы.

Скачать торрент Батыр - заячья душа Коркак-Батыр бесплатно через .torrent фильм мультфильм сериал

Статистика раздачи
Размер:  169 MB   |    Зарегистрирован:  9 дней   |    .torrent скачан:  24 раза   |   
Раздают:  1  
   
загрузка...
 
Автор Сообщение

Galfimbul

avatar Galfimbul


Батыр - заячья душа
Жанр: мультфильм
Студия: Казахфильм
Продолжительность: 00:09:50
Год выпуска: 1989
Режиссёры: А.Абилкасимов, Абдукамиль Джунусов
Описание: Веселая история о том, как добродушного непритязательного силача комические обстоятельства «выталкивают» в герои-богатыри.
Качество: DVB [Ел Арна] (эфир 08.07.2018)
Формат: TS
Видео: AVC, 720x576 (16:9) @ 1047x576, 25 fps, ~2084 kbps, 0.201 bit/pixel
Аудио: [RUS] MP2, 48 kHz, 2 ch, 192 kbps
GeneralID : 1 (0x1)Complete name : H:\Раздачи\Батыр - заячья душа (1989) [DVB].tsFormat : MPEG-TSFile size : 169 MiBDuration : 9 min 52 sOverall bit rate mode : VariableOverall bit rate : 2 396 kb/s

VideoID : 67 (0x43)Menu ID : 1 (0x1)Format : AVCFormat/Info : Advanced Video CodecFormat profile : [email protected] settings : CABAC / 3 Ref FramesFormat settings, CABAC : YesFormat settings, ReFrames : 3 framesCodec ID : 27Duration : 9 min 52 sBit rate : 2 084 kb/sWidth : 720 pixelsHeight : 576 pixelsDisplay aspect ratio : 16:9Frame rate : 25.000 FPSStandard : ComponentColor space : YUVChroma subsampling : 4:2:0Bit depth : 8 bitsScan type : InterlacedScan type, store method : Separated fieldsScan order : Top Field FirstBits/(Pixel*Frame) : 0.201Stream size : 147 MiB (87%)Color range : LimitedColor primaries : BT.601 PALTransfer characteristics : BT.470 System B/GMatrix coefficients : BT.470 System B/G

AudioID : 68 (0x44)Menu ID : 1 (0x1)Format : MPEG AudioFormat version : Version 1Format profile : Layer 2Codec ID : 3Duration : 9 min 52 sBit rate mode : ConstantBit rate : 192 kb/sChannel(s) : 2 channelsSampling rate : 48.0 kHzFrame rate : 41.667 FPS (1152 SPF)Compression mode : LossyDelay relative to video : -40 msStream size : 13.6 MiB (8%)Language : English


Трекер:  [ 08-Июл-2018 09:30 ]

  

Скачать .torrent

Размер .torrent файла 13 KB


Размер: 169 MB
Хэш (hash) релиза: 190c64c2c3580ec67bbbdfdcd7ae182af524db73
Подписка на обновления:

Еще никто не оставлял запись к записи скачать торрент Батыр - заячья душа Коркак-Батыр . Будь первым!

!Обратная связь