Télécharger Part 2 | Hip-Hop Evolution | Regreso a Casa BLuRayRip

Скачать через торрент Жаворонок Фильм бесплатно в хорошем качестве torrent

Скачивайте на UnionPeer.org фильмы через торрент без регистрации. Новинки кино в хорошем качестве через торрент. На UnionPeer.org можно скачать через торрент фильмы 2014 и 2015 годов. Самые новые фильмы.

Скачать торрент Жаворонок бесплатно через .torrent фильм мультфильм сериал

Статистика раздачи
Размер:  318 MB   |    Зарегистрирован:  11 дней   |    .torrent скачан:  21 раз   |   
Раздают:  1  
   
загрузка...
 
Автор Сообщение

Galfimbul

avatar Galfimbul


Жаворонок
Жанр: мультфильм
Студия: Казахфильм
Продолжительность: 00:18:36
Год выпуска: 1986
Режиссёр: Ерсайын Абдрахманов
Описание: История семьи, в которой легенда о батырах - защитниках родной земли тесно переплелась с реальными событиями минувшей войны.
Качество: DVB [Ел Арна] (эфир 08.07.2018)
Формат: TS
Видео: AVC, 720x576 (16:9) @ 1047x576, 25 fps, ~2077 kbps, 0.200 bit/pixel
Аудио: [RUS] MP2, 48 kHz, 2 ch, 192 kbps
GeneralID : 1 (0x1)Complete name : H:\Раздачи\Жаворонок (1986) [DVB].tsFormat : MPEG-TSFile size : 318 MiBDuration : 18 min 36 sOverall bit rate mode : VariableOverall bit rate : 2 390 kb/s

VideoID : 67 (0x43)Menu ID : 1 (0x1)Format : AVCFormat/Info : Advanced Video CodecFormat profile : [email protected] settings : CABAC / 3 Ref FramesFormat settings, CABAC : YesFormat settings, ReFrames : 3 framesFormat settings, GOP : M=4, N=32Codec ID : 27Duration : 18 min 36 sBit rate : 2 077 kb/sWidth : 720 pixelsHeight : 576 pixelsDisplay aspect ratio : 16:9Frame rate : 25.000 FPSStandard : ComponentColor space : YUVChroma subsampling : 4:2:0Bit depth : 8 bitsScan type : InterlacedScan type, store method : Separated fieldsScan order : Top Field FirstBits/(Pixel*Frame) : 0.200Stream size : 276 MiB (87%)Color range : LimitedColor primaries : BT.601 PALTransfer characteristics : BT.470 System B/GMatrix coefficients : BT.470 System B/G

AudioID : 68 (0x44)Menu ID : 1 (0x1)Format : MPEG AudioFormat version : Version 1Format profile : Layer 2Codec ID : 3Duration : 18 min 36 sBit rate mode : ConstantBit rate : 192 kb/sChannel(s) : 2 channelsSampling rate : 48.0 kHzFrame rate : 41.667 FPS (1152 SPF)Compression mode : LossyDelay relative to video : -80 msStream size : 25.5 MiB (8%)Language : English


Трекер:  [ 08-Июл-2018 09:30 ]

  

Скачать .torrent

Размер .torrent файла 13 KB


Размер: 318 MB
Хэш (hash) релиза: 124ec6143a3f72647230828d8a56385394459fe5
Подписка на обновления:

Торренты, похожие на Жаворонок скачать торрент

Форум Название Автор Размер S L Добавлен
Зарубежные фильмы до 2016 ·· Жаворонки на нити / Жаворонки на нитях / Skrivanci na niti / Larks on a String (Иржи Менцель / Jiri Menzel) [1969, Чехословакия, комедия, HDTVRip 720p] DVO (НТВ+) + Sub Eng + Original Cze Galfimbul 39221370363.65 GB 0 0 1416947801

23:36

25-Ноя-14

Мультфильмы до 2016 ·· Соломенный жаворонок. Сборник мультфильмов (Соломенный жаворонок; Ах, принцесса!; Данило и Ненила; Гостья) (Ю.Трофимов, Ю.Капишер, А.Солин) [1980-1991, Мультфильм, DVD5] КП Galfimbul 35378109063.29 GB 0 0 1361723664

19:34

24-Фев-13

Зарубежные фильмы до 2016 ·· Гнездо жаворонка / La masseria delle allodole / The Lark Farm (Паоло Тавиани / Paolo Taviani, Витторио Тавиани / Vittorio Taviani) [2007, Италия, драма, исторический, DVDRip-AVC] MVO + Sub (rus, eng) + Original Ita Galfimbul 25482365692.37 GB 0 0 1472128168

15:29

25-Авг-16

Российские фильмы до 2016 ·· Жаворонок (Никита Курихин, Леонид Менакер) [1964, военный фильм, драма, TVRip] L 44183224324.11 GB 0 0 1327224699

12:31

22-Янв-12

Зарубежные сериалы ·· Ларк Райз против Кэндлфорда (С жаворонками в Кэндлфорд) / Lark Rise to Candleford / сезон 2 / серии 1-12 из 12 (Алан Гринт / Alan Grint, Мойра Армстронг / Moira Armstrong) [2009 г., Экранизация, драма, IPTVRip] Ziki 46543180604.33 GB 0 0 1287689197

22:26

21-Окт-10

Зарубежные сериалы ·· Ларк Райз против Кэндлфорда (С жаворонками в Кэндлфорд) / Lark Rise to Candleford / сезон 1 / серии 1-10 из 10 (Чарльз Палмер / Charles Palmer, Джон Грининг / John Greening, Марк Джобст / Marc Jobst) [2008 г., Экранизация, драма, IPTVRip] Ziki 46781990744.36 GB 0 0 1287689141

22:25

21-Окт-10

Еще никто не оставлял запись к записи скачать торрент Жаворонок . Будь первым!

!Обратная связь