Dubstep (lossless) | Simulation Games (Count: 1106) | Adventure

Скачать через торрент От семьи не убежишь La chtite famille бесплатно русская версия torrent активатор

Статистика раздачи
Размер:  1.16 GB   |    Зарегистрирован:  13 дней   |    .torrent скачан:  27 раз   |   
Раздают:  1  
   
загрузка...
 
Автор Сообщение

Galfimbul

avatar Galfimbul


От семьи не убежишь / La ch'tite famille
-

6.601 / 10 5.50 / 10
Год выпуска: 2018
Страна: Франция
Жанр: Комедия
Продолжительность: 01:46:28

Перевод: Дублированный(iTunes)
Оригинальная аудиодорожка: Есть
Cубтитры: Нет
Режиссёр: Дэни Бун
Сценарий: Дэни Бун, Сара Камински
Продюсер: Дэни Бун, Эрик Юбер
Оператор: Дени Руден
Композитор: Максим Депре, Мишель Торджман
Художник: Эрве Галле, Стефани Бертран, Летиция Буи
Монтаж: Элоди Кодассиони
В ролях: Дэни Бун, Лин Рено, Лоранс Арне, Валери Боннетон, Ги Леклюиз, Франсуа Берлеан, Пьер Ришар, Жюлиан Лепоро, Стефан Пезера, Ян Туаль

Сборы в России: $75 139

Мировая премьера: 13 января 2018
Премьера (РФ): 31 мая 2018, «Каскад фильм»

Релиз на DVD: 23 июля 2018, «НД Плэй»
Цифровой релиз: 2 июля 2018, «НД Плэй»

Описание: Молодые и успешные парижские дизайнеры Валентин и Констанция готовятся заключить многомиллионный контракт, но в самый неподходящий момент на выставку приезжает вся семейка Валентина, которая проливает свет на его прошлое и расстраивает все планы.
Качество исходника: BDRemux (NNMClub)
Качество: BDRip
Тип: SD (480p)
Контейнер: M4V
Видео: H.264, 640x356 анаморф 852х356, 2.40:1, 1300 Kbps, 23.976 (24000/1001) fps

Аудио 1: Русский/Дублированный (iTunes), AAC / 2.0 / 128 Kbps / 48.0 KHz
Аудио 2: Французский/Оригинальная дорожка , AAC / 2.0 / 128 Kbps / 48.0 KHz
Sort Name: La ch'tite famille
XID: Apple:vendor_id:2018-1061480
contentID: 1346015217
Copyright: © 2018 PATHE FILMS / LES PRODUCTIONS DU CH'TIMI / TF1 FILMS PRODUCTION
Screenwriters: Дэни Бун, Сара Камински
Producers: Дэни Бун, Эрик Юбер
Director: Дэни Бун
Cast: Дани Бун, Лин Рено, Лоранс Арне, Валери Боннетон, Ги Леклюиз, Франсуа Берлеан, Пьер Ришар, Жюлиан Лепоро, Стефан Пезера, Ян Туаль
Studio: PATHE FILMS
Rating: 60
Long Description: Молодые и успешные парижские дизайнеры Валентин и Констанция готовятся заключить многомиллионный контракт, но в самый неподходящий момент на выставку приезжает вся семейка Валентина, которая проливает свет на его прошлое и расстраивает все планы.
Description: Молодые и успешные парижские дизайнеры Валентин и Констанция готовятся заключить многомиллионный контракт, но в самый неподходящий момент на выставку приезжает вся семейка Валентина, которая проливает свет на его прошлое и расстраивает все планы.
Release Date: 2018-02-28T08:00:00Z
Genre: Comedy
Artist: Dany Boon
Name: La ch'tite famille
General
Complete name                            : /Users/imac/HandBrake/La.Chtite.Famille.(480p).(pk).m4v
Format                                   : MPEG-4
Codec ID                                 : M4V  (M4V /M4A /mp42/isom)
File size                                : 1.16 GiB
Duration                                 : 1h 46mn
Overall bit rate mode                    : Variable
Overall bit rate                         : 1 557 Kbps
Movie name                               : La ch'tite famille
Performer                                : Dany Boon
Director                                 : Дэни Бун
Actor                                    : Дани Бун / Лин Рено / Лоранс Арне / Валери Боннетон / Ги Леклюиз / Франсуа Берлеан / Пьер Ришар / Жюлиан Лепоро / Стефан Пезера / Ян Туаль
Screenplay by                            : Дэни Бун / Сара Камински
Producer                                 : Дэни Бун / Эрик Юбер
Production studio                        : PATHE FILMS
Genre                                    : Comedy
ContentType                              : Short Film
Description                              : Молодые и успешные парижские дизайнеры Валентин и Констанция готовятся заключить многомиллионный контракт, но в самый неподходящий момент на выставку приезжает вся семейка Валентина, которая проливает свет на его прошлое и расстраивает все планы.
Recorded date                            : UTC 2018-02-28 08:00:00
Encoded date                             : UTC 2018-07-07 23:23:29
Tagged date                              : UTC 2018-07-07 23:24:55
Copyright                                : © 2018 PATHE FILMS / LES PRODUCTIONS DU CH'TIMI / TF1 FILMS PRODUCTION
Cover                                    : Yes
Rating                                   : None
Title/Sort                               : La ch'tite famille
LongDescription                          : Молодые и успешные парижские дизайнеры Валентин и Констанция готовятся заключить многомиллионный контракт, но в самый неподходящий момент на выставку приезжает вся семейка Валентина, которая проливает свет на его прошлое и расстраивает все планы.
AppleStoreCatalogID                      : 1346015217
Vendor                                   : Apple:vendor_id:2018-1061480
ContentRating                            : fr-movie|Tout public|000|

Video #1
ID                                       : 1
Format                                   : AVC
Format/Info                              : Advanced Video Codec
Format profile                           : [email protected]
Format settings                          : 2 Ref Frames
Format settings, CABAC                   : No
Format settings, ReFrames                : 2 frames
Codec ID                                 : avc1
Codec ID/Info                            : Advanced Video Coding
Duration                                 : 1h 46mn
Bit rate                                 : 1 300 Kbps
Width                                    : 640 pixels
Height                                   : 356 pixels
Display aspect ratio                     : 2.40:1
Frame rate mode                          : Variable
Frame rate                               : 23.976 (24000/1001) fps
Minimum frame rate                       : 23.974 fps
Maximum frame rate                       : 23.981 fps
Color space                              : YUV
Chroma subsampling                       : 4:2:0
Bit depth                                : 8 bits
Scan type                                : Progressive
Bits/(Pixel*Frame)                       : 0.238
Stream size                              : 990 MiB (84%)
Title                                    : Main Program
Writing library                          : x264 core 155 r2901 7d0ff22
Encoding settings                        : cabac=0 / ref=2 / deblock=1:0:0 / analyse=0x1:0x111 / me=umh / subme=6 / psy=1 / psy_rd=1.00:0.00 / mixed_ref=1 / me_range=16 / chroma_me=1 / trellis=0 / 8x8dct=0 / cqm=0 / deadzone=21,11 / fast_pskip=1 / chroma_qp_offset=-2 / threads=11 / lookahead_threads=1 / sliced_threads=0 / nr=0 / decimate=1 / interlaced=0 / bluray_compat=0 / constrained_intra=0 / bframes=0 / weightp=0 / keyint=240 / keyint_min=24 / scenecut=40 / intra_refresh=0 / rc_lookahead=40 / rc=2pass / mbtree=1 / bitrate=1300 / ratetol=1.0 / qcomp=0.60 / qpmin=0 / qpmax=69 / qpstep=4 / cplxblur=20.0 / qblur=0.5 / vbv_maxrate=5000 / vbv_bufsize=5000 / nal_hrd=none / filler=0 / ip_ratio=1.40 / aq=1:1.00
Language                                 : French
Encoded date                             : UTC 2018-07-07 23:23:29
Tagged date                              : UTC 2018-07-07 23:23:34
Color range                              : Limited
Color primaries                          : BT.709
Transfer characteristics                 : BT.709
Matrix coefficients                      : BT.709
Menus                                    : 4,5

Video #2
ID                                       : 5
Format                                   : JPEG
Codec ID                                 : jpeg
Duration                                 : 1h 46mn
Bit rate mode                            : Variable
Bit rate                                 : 608 bps
Width                                    : 640 pixels
Height                                   : 267 pixels
Display aspect ratio                     : 2.40:1
Frame rate mode                          : Variable
Frame rate                               : 0.002 fps
Minimum frame rate                       : 0.001 fps
Maximum frame rate                       : 0.004 fps
Color space                              : YUV
Chroma subsampling                       : 4:2:0
Bit depth                                : 8 bits
Compression mode                         : Lossy
Bits/(Pixel*Frame)                       : 1.779
Stream size                              : 445 KiB (0%)
Title                                    : Chapter Images
Language                                 : French
Default                                  : No
Encoded date                             : UTC 2018-07-07 23:23:58
Tagged date                              : UTC 2018-07-07 23:23:58
Menu For                                 : 1
ColorSpace_ICC                           : RGB

Audio #1
ID                                       : 2
Format                                   : AAC
Format/Info                              : Advanced Audio Codec
Format profile                           : LC
Codec ID                                 : mp4a-40-2
Duration                                 : 1h 46mn
Source duration                          : 1h 46mn
Bit rate mode                            : Variable
Bit rate                                 : 125 Kbps
Maximum bit rate                         : 194 Kbps
Channel(s)                               : 2 channels
Channel positions                        : Front: L R
Sampling rate                            : 48.0 KHz
Frame rate                               : 46.875 fps (1024 SPF)
Compression mode                         : Lossy
Stream size                              : 95.5 MiB (8%)
Source stream size                       : 95.5 MiB (8%)
Title                                    : Russian Stereo
Language                                 : Russian
Default                                  : Yes
Alternate group                          : 1
Encoded date                             : UTC 2018-07-07 23:23:29
Tagged date                              : UTC 2018-07-07 23:23:55

Audio #2
ID                                       : 3
Format                                   : AAC
Format/Info                              : Advanced Audio Codec
Format profile                           : LC
Codec ID                                 : mp4a-40-2
Duration                                 : 1h 46mn
Source duration                          : 1h 46mn
Bit rate mode                            : Variable
Bit rate                                 : 125 Kbps
Maximum bit rate                         : 206 Kbps
Channel(s)                               : 2 channels
Channel positions                        : Front: L R
Sampling rate                            : 48.0 KHz
Frame rate                               : 46.875 fps (1024 SPF)
Compression mode                         : Lossy
Stream size                              : 95.0 MiB (8%)
Source stream size                       : 95.0 MiB (8%)
Title                                    : French Stereo
Language                                 : French
Default                                  : No
Alternate group                          : 1
Encoded date                             : UTC 2018-07-07 23:23:29
Tagged date                              : UTC 2018-07-07 23:23:55

Menu #1
00:00:00.000                             : Chapter 1
00:07:37.248                             : Chapter 2
00:15:11.285                             : Chapter 3
00:25:04.461                             : Chapter 4
00:33:17.871                             : Chapter 5
00:41:44.627                             : Chapter 6
00:51:26.250                             : Chapter 7
01:00:48.812                             : Chapter 8
01:10:42.905                             : Chapter 9
01:20:07.928                             : Chapter 10
01:30:17.621                             : Chapter 11
01:41:55.234                             : Chapter 12

Menu #2
ID                                       : 4
Codec ID                                 : text
Duration                                 : 1h 46mn
Language                                 : French
Encoded date                             : UTC 2018-07-07 23:23:55
Tagged date                              : UTC 2018-07-07 23:23:55
Menu For                                 : 1
00:00:00.000                             : Chapter 1
00:07:37.248                             : Chapter 2
00:15:11.285                             : Chapter 3
00:25:04.461                             : Chapter 4
00:33:17.871                             : Chapter 5
00:41:44.627                             : Chapter 6
00:51:26.250                             : Chapter 7
01:00:48.812                             : Chapter 8
01:10:42.905                             : Chapter 9
01:20:07.928                             : Chapter 10
01:30:17.621                             : Chapter 11
01:41:55.234                             : Chapter 12
Bit rate mode                            : VBR
x264 [info]: frame I:2104  Avg QP:17.45  size: 32193
x264 [info]: frame P:151062 Avg QP:20.57  size:  6424
x264 [info]: mb I  I16..4: 15.8%  0.0% 84.2%
x264 [info]: mb P  I16..4:  0.7%  0.0%  2.3%  P16..4: 46.1% 21.5%  9.1%  0.0%  0.0%    skip:20.2%
x264 [info]: coded y,uvDC,uvAC intra: 68.6% 80.1% 56.7% inter: 25.9% 23.8% 5.3%
x264 [info]: i16 v,h,dc,p: 48% 12%  7% 34%
x264 [info]: i4 v,h,dc,ddl,ddr,vr,hd,vl,hu: 41% 11% 11%  5%  7%  8%  5%  7%  4%
x264 [info]: i8c dc,h,v,p: 44% 14% 34%  9%
x264 [info]: ref P L0: 73.5% 26.5%
x264 [info]: kb/s:1300.15

Релиз подготовлен для просмотра на Apple TV, iPad, iPhone, iPod Touch.
Для просмотра данного релиза на компьютере с ОС Windows рекомендуется использовать VLC media player

Трекер:  [ 08-Июл-2018 03:06 ]

  

Скачать .torrent

Размер .torrent файла 23 KB


Размер: 1.16 GB
Хэш (hash) релиза: 34f3b86208c62837a5815c4a364808b5c33d498b

Еще никто не оставлял запись к записи скачать торрент От семьи не убежишь La chtite famille . Будь первым!

!Обратная связь